[国家地理] [4K国家地理] 自由 Svoboda (2021) [2160P/MKV/375MB]

[复制链接]

2652

主题

2986

帖子

2万

积分

超级版主

Rank: 8Rank: 8

积分
24945
 楼主| 发表于 2021-12-30 11:21:24 | 显示全部楼层 |阅读模式
自由 Svoboda (2021) WEBRip 2160p.mkv_20211209_124926.170.jpg 自由 Svoboda (2021) WEBRip 2160p.mkv_20211209_124941.371.jpg 自由 Svoboda (2021) WEBRip 2160p.mkv_20211209_124951.298.jpg 自由 Svoboda (2021) WEBRip 2160p.mkv_20211209_125003.402.jpg 自由 Svoboda (2021) WEBRip 2160p.mkv_20211209_125010.171.jpg 自由 Svoboda (2021) WEBRip 2160p.mkv_20211209_125016.474.jpg

影片信息
片名: Freedom
上映年份: 2021
国家:加拿大
持续时间: 00 : 02 : 36
类型: 物种
导演: Liam Mullany

影片简介:

       Freedom 是一个斯拉夫语词,与自由的表达有关。山地自行车运动员亚历克斯·沃洛霍夫通过自己的骑行和步道建设传达了这种创造力,在与已故的乔迪·兰恩(Jordi Lann)度过了很长一段时间后,他的价值观更加根深蒂固。
General
Complete name                  : E:\4K国家地理\自由  Svoboda (2021) WEBRip 2160p.mkv
Format                         : Matroska
Format version                 : Version 4
File size                      : 376 MiB
Duration                       : 2 min 36 s
Overall bit rate               : 20.1 Mb/s
Encoded date                   : UTC 2021-11-01 21:17:28
Writing application            : mkvmerge v62.0.0 ('Apollo') 64-bit
Writing library                : libebml v1.4.2 + libmatroska v1.6.4

Video
ID                             : 1
Format                         : AVC
Format/Info                    : Advanced Video Codec
Format profile                 : High@L5.2
Format settings                : CABAC / 5 Ref Frames
Format settings, CABAC         : Yes
Format settings, Reference fra : 5 frames
Codec ID                       : V_MPEG4/ISO/AVC
Duration                       : 2 min 36 s
Bit rate                       : 19.9 Mb/s
Width                          : 4 096 pixels
Height                         : 1 708 pixels
Display aspect ratio           : 2.40:1
Frame rate mode                : Constant
Frame rate                     : 23.976 (24000/1001) FPS
Color space                    : YUV
Chroma subsampling             : 4:2:0
Bit depth                      : 8 bits
Scan type                      : Progressive
Bits/(Pixel*Frame)             : 0.119
Stream size                    : 371 MiB (99%)
Writing library                : x264 core 164 r10 ae03D92
Encoding settings              : cabac=1 / ref=5 / deblock=1:0:0 / analyse=0x3:0x113 / me=hex / subme=8 / psy=1 / psy_rd=1.00:0.00 / mixed_ref=1 / me_range=16 / chroma_me=1 / trellis=2 / 8x8dct=1 / cqm=0 / deadzone=21,11 / fast_pskip=1 / chroma_qp_offset=-2 / threads=48 / lookahead_threads=8 / sliced_threads=0 / nr=0 / decimate=1 / interlaced=0 / bluray_compat=0 / stitchable=1 / constrained_intra=0 / bframes=3 / b_pyramid=2 / b_adapt=2 / b_bias=0 / direct=3 / weightb=1 / open_gop=0 / weightp=2 / keyint=infinite / keyint_min=23 / scenecut=40 / intra_refresh=0 / rc_lookahead=50 / rc=crf / mbtree=1 / crf=20.0 / qcomp=0.60 / qpmin=5 / qpmax=69 / qpstep=4 / vbv_maxrate=24200 / vbv_bufsize=66000 / crf_max=0.0 / nal_hrd=none / filler=0 / ip_ratio=1.40 / aq=1:1.00
Default                        : Yes
Forced                         : No
Color range                    : Limited
Color primaries                : BT.709
Transfer characteristics       : BT.709
Matrix coefficients            : BT.709

Audio
ID                             : 2
Format                         : AAC LC
Format/Info                    : Advanced Audio Codec Low Complexity
Codec ID                       : A_AAC-2
Duration                       : 2 min 36 s
Bit rate                       : 253 kb/s
Channel(s)                     : 2 channels
Channel layout                 : L R
Sampling rate                  : 48.0 kHz
Frame rate                     : 46.875 FPS (1024 SPF)
Compression mode               : Lossy
Stream size                    : 4.73 MiB (1%)
Default                        : Yes
Forced                         : No

下载地址:

****此区域为收费内容****    需支付 15 金币后可查看立即购买







上一篇:[4K国家地理] 电影卷轴:运动 (2021) [2160P/MKV/419MB]
下一篇:[4K国家地理] 森林中的极限车技 (2019) [2160P/MKV/697MB]
回复

使用道具 举报

40

主题

1508

帖子

4314

积分

4K家园VIP

Rank: 9Rank: 9Rank: 9

积分
4314
发表于 2021-12-30 11:21:29 | 显示全部楼层
发发呆,回回帖,工作结束~
回复 支持 反对

使用道具 举报

0

主题

7237

帖子

1万

积分

4K家园VIP

Rank: 9Rank: 9Rank: 9

积分
16569
发表于 2021-12-30 13:27:56 | 显示全部楼层
加拿大山地自行車運動4k
回复 支持 反对

使用道具 举报

3

主题

1742

帖子

4774

积分

中级会员

Rank: 4

积分
4774
发表于 2022-1-1 17:47:45 | 显示全部楼层
正需要
回复 支持 反对

使用道具 举报

0

主题

7237

帖子

1万

积分

4K家园VIP

Rank: 9Rank: 9Rank: 9

积分
16569
发表于 2022-1-2 08:41:59 | 显示全部楼层
太好啦&萬分感謝版主的無私發佈分享%
回复 支持 反对

使用道具 举报

2

主题

1313

帖子

3959

积分

4K家园VIP

Rank: 9Rank: 9Rank: 9

积分
3959
发表于 2022-1-4 03:18:35 | 显示全部楼层
秀起来~
回复 支持 反对

使用道具 举报

2

主题

1301

帖子

3715

积分

4K家园VIP

Rank: 9Rank: 9Rank: 9

积分
3715
发表于 2022-1-4 12:35:17 | 显示全部楼层
怎么这么大,希望我电视能看啊
回复 支持 反对

使用道具 举报

1

主题

1353

帖子

3905

积分

4K家园VIP

Rank: 9Rank: 9Rank: 9

积分
3905
发表于 2022-1-4 22:14:11 | 显示全部楼层
前排顶起
回复 支持 反对

使用道具 举报

您需要登录后才可以回帖 登录 | 立即注册

本版积分规则

精彩图文
Archiver|手机版|TAG|Sitemap|新帖|专题|联系我们:邮箱: 4kjia.com@gmail.com   

4k家园   ©2019