[国家地理] [4K国家地理] 放飞自己 (2021) [2160P/MKV/329MB]

[复制链接]

2652

主题

2986

帖子

2万

积分

超级版主

Rank: 8Rank: 8

积分
24945
 楼主| 发表于 2022-1-5 19:00:25 | 显示全部楼层 |阅读模式
相信自己 (2021) WEBRip 2160p.mkv_20211209_131624.160.jpg 相信自己 (2021) WEBRip 2160p.mkv_20211209_131632.863.jpg 相信自己 (2021) WEBRip 2160p.mkv_20211209_131651.081.jpg 相信自己 (2021) WEBRip 2160p.mkv_20211209_131656.687.jpg 相信自己 (2021) WEBRip 2160p.mkv_20211209_131711.240.jpg 相信自己 (2021) WEBRip 2160p.mkv_20211209_131721.848.jpg 相信自己 (2021) WEBRip 2160p.mkv_20211209_131734.327.jpg 放飞自己.mkv_20211209_132121.503.jpg

影片信息
片名:相信你自己
上映年份: 2021
国家:法国
持续时间: 00 : 02 : 02
类型: 物种
导演: Shikijo Petroski

关于电影:

         在直升机的帮助下,你可以获得迷人的视频画面并进行令人眼花缭乱的飞行,但这一切都需要一些准备。

General
Complete name                  : E:\4K国家地理\放飞自己.mkv
Format                         : Matroska
Format version                 : Version 4
File size                      : 329 MiB
Duration                       : 2 min 2 s
Overall bit rate               : 22.6 Mb/s
Encoded date                   : UTC 2021-11-06 12:13:04
Writing application            : mkvmerge v62.0.0 ('Apollo') 64-bit
Writing library                : libebml v1.4.2 + libmatroska v1.6.4

Video
ID                             : 1
Format                         : AVC
Format/Info                    : Advanced Video Codec
Format profile                 : High@L5.2
Format settings                : CABAC / 5 Ref Frames
Format settings, CABAC         : Yes
Format settings, Reference fra : 5 frames
Codec ID                       : V_MPEG4/ISO/AVC
Duration                       : 2 min 2 s
Bit rate                       : 22.3 Mb/s
Width                          : 3 840 pixels
Height                         : 2 160 pixels
Display aspect ratio           : 16:9
Frame rate mode                : Constant
Frame rate                     : 29.970 FPS
Color space                    : YUV
Chroma subsampling             : 4:2:0
Bit depth                      : 8 bits
Scan type                      : Progressive
Bits/(Pixel*Frame)             : 0.090
Stream size                    : 325 MiB (99%)
Writing library                : x264 core 164 r10 ae03D92
Encoding settings              : cabac=1 / ref=5 / deblock=1:0:0 / analyse=0x3:0x113 / me=hex / subme=8 / psy=1 / psy_rd=1.00:0.00 / mixed_ref=1 / me_range=16 / chroma_me=1 / trellis=2 / 8x8dct=1 / cqm=0 / deadzone=21,11 / fast_pskip=1 / chroma_qp_offset=-2 / threads=48 / lookahead_threads=8 / sliced_threads=0 / nr=0 / decimate=1 / interlaced=0 / bluray_compat=0 / stitchable=1 / constrained_intra=0 / bframes=3 / b_pyramid=2 / b_adapt=2 / b_bias=0 / direct=3 / weightb=1 / open_gop=0 / weightp=2 / keyint=infinite / keyint_min=29 / scenecut=40 / intra_refresh=0 / rc_lookahead=50 / rc=crf / mbtree=1 / crf=20.0 / qcomp=0.60 / qpmin=5 / qpmax=69 / qpstep=4 / vbv_maxrate=24200 / vbv_bufsize=66000 / crf_max=0.0 / nal_hrd=none / filler=0 / ip_ratio=1.40 / aq=1:1.00
Default                        : Yes
Forced                         : No
Color range                    : Limited
Color primaries                : BT.709
Transfer characteristics       : BT.709
Matrix coefficients            : BT.709

Audio
ID                             : 2
Format                         : AAC LC
Format/Info                    : Advanced Audio Codec Low Complexity
Codec ID                       : A_AAC-2
Duration                       : 2 min 2 s
Bit rate                       : 253 kb/s
Channel(s)                     : 2 channels
Channel layout                 : L R
Sampling rate                  : 48.0 kHz
Frame rate                     : 46.875 FPS (1024 SPF)
Compression mode               : Lossy
Delay relative to video        : -66 ms
Stream size                    : 3.69 MiB (1%)
Default                        : Yes
Forced                         : No

下载地址:

****此区域为收费内容****    需支付 15 金币后可查看立即购买






上一篇:[4K国家地理] 仰望美景 (2021) [2160P/MKV/520MB]
下一篇:[4K国家地理] 夏季的冰岛 (2021) [2160P/MKV/663MB]
回复

使用道具 举报

2

主题

1329

帖子

3805

积分

4K家园VIP

Rank: 9Rank: 9Rank: 9

积分
3805
发表于 2022-1-5 19:00:31 | 显示全部楼层
佩服佩服!
回复 支持 反对

使用道具 举报

0

主题

7239

帖子

1万

积分

4K家园VIP

Rank: 9Rank: 9Rank: 9

积分
16578
发表于 2022-1-5 19:31:46 | 显示全部楼层
太好啦&萬分感謝版主的無私發佈分享%
回复 支持 反对

使用道具 举报

0

主题

1419

帖子

4463

积分

中级会员

Rank: 4

积分
4463
发表于 2022-1-7 12:32:26 | 显示全部楼层

谢谢楼主分享
回复 支持 反对

使用道具 举报

0

主题

1419

帖子

4463

积分

中级会员

Rank: 4

积分
4463
发表于 2022-1-7 12:33:02 | 显示全部楼层

谢谢楼主分享
回复 支持 反对

使用道具 举报

1

主题

1392

帖子

4010

积分

中级会员

Rank: 4

积分
4010
发表于 2022-1-8 15:32:16 来自手机 | 显示全部楼层
多谢楼主分享
回复 支持 反对

使用道具 举报

0

主题

14

帖子

78

积分

新手上路

Rank: 1

积分
78
发表于 2022-1-8 17:03:16 | 显示全部楼层

多谢楼主分享
回复 支持 反对

使用道具 举报

您需要登录后才可以回帖 登录 | 立即注册

本版积分规则

精彩图文
Archiver|手机版|TAG|Sitemap|新帖|专题|联系我们:邮箱: 4kjia.com@gmail.com   

4k家园   ©2019