[4K UHD 蓝光原盘] 三块广告牌 (内嵌中字) (2017) 4K蓝光[原盘+REMUX]版本下载[补档]

[复制链接]

1310

主题

1377

帖子

1万

积分

超级版主

Rank: 8Rank: 8

积分
15370
 楼主| 发表于 2021-12-14 12:21:12 | 显示全部楼层 |阅读模式
本帖最后由 没完没了 于 2021-12-14 12:39 编辑

QQ图片20211214121439_副本.png

◎译  名 三块广告牌/广告牌杀人事件(港)/意外(台)
◎片  名 Three Billboards Outside Ebbing, Missouri
◎年  代 2017
◎产  地 美国,英国
◎类  别 剧情 / 犯罪
◎语  言 英语
◎上映日期 2017-09-04(威尼斯电影节) / 2017-12-01(美国) / 2018-03-02(中国大陆)
◎IMDb评分 8.1/10 from 473761 users
◎IMDb链接 https://www.imdb.com/title/tt5027774/
◎豆瓣评分 8.7/10 from 719043 users
◎豆瓣链接 https://movie.douban.com/subject/26611804/
◎片  长 115分钟
◎导  演 马丁·麦克唐纳 Martin McDonagh
◎编  剧 马丁·麦克唐纳 Martin McDonagh
◎主  演 弗兰西斯·麦克多蒙德 Frances McDormand
      伍迪·哈里森 Woody Harrelson
      山姆·洛克威尔 Sam Rockwell
      艾比·考尼什 Abbie Cornish
      卢卡斯·赫奇斯 Lucas Hedges
      彼特·丁拉基 Peter Dinklage
      约翰·浩克斯 John Hawkes
      卡赖伯·兰德里·琼斯 Caleb Landry Jones
      凯瑟琳·纽顿 Kathryn Newton
      凯瑞·康顿 Kerry Condon
      泽利科·伊万内克 Zeljko Ivanek
      萨玛拉·维文 Samara Weaving
      克拉克·彼得斯 Clarke Peters
      尼克·瑟西 Nick Searcy
      阿曼达·沃伦 Amanda Warren
      玛拉雅·瑞沃拉·德鲁 Malaya Rivera Drew
      布兰登·萨克斯顿 Brendan Sexton III
      迈克尔·艾伦·米利甘 Michael Aaron Milligan
      桑迪·马丁 Sandy Martin
      克里斯托弗·贝瑞 Christopher Berry
      杰瑞温塞特 Jerry Winsett
      马库斯·里尔·布朗 Marcus Lyle Brown
      劳伦斯·特纳 Lawrence Turner
      西拉·阿特伍德 Selah Atwood
      里亚·梅·阿特伍德 Riya May Atwood
      达里尔·布里特-吉布森 Darrell Britt-Gibson


◎简  介

  米尔德雷德(弗兰西斯·麦克多蒙德 Frances McDormand 饰)的女儿在外出时惨遭奸杀,米尔德雷德和丈夫查理(约翰·哈克斯 John Hawkes 饰)之间的婚姻因此走到了尽头,如今,她同儿子罗比(卢卡斯·赫奇斯 Lucas Hedges饰)过着相依为命的生活。一晃眼几个月过去了,案件仍然没有告破预兆,而警方似乎早已经将注意力从案子上转移了开来。

  被绝望和痛苦缠绕的米尔德雷德租下了高速公路边上的三块巨型广告牌,在上面控诉警方办案无能,并将矛头直接对准了警察局局长威洛比(伍迪·哈里森 Woody Harrelson 饰)。实际上,威洛比一直隐瞒着自己身患绝症命不久矣的事实。因为这三块广告牌,米尔德雷德和威洛比的生活发生了翻天覆地的变化。

◎获奖情况

  第90届奥斯卡金像奖 ?(2018)
  最佳影片(提名) 马丁·麦克唐纳?/?彼得·切尔宁?/?格雷厄姆·布罗德本特
  最佳女主角 弗兰西斯·麦克多蒙德
  最佳男配角 山姆·洛克威尔
  最佳男配角(提名) 伍迪·哈里森
  最佳原创剧本(提名) 马丁·麦克唐纳
  最佳剪辑(提名) 乔恩·格雷戈里
  最佳原创配乐(提名) 卡特·伯韦尔

  第74届威尼斯电影节 ?(2017)
  主竞赛单元最佳剧本奖 马丁·麦克唐纳
  主竞赛单元金狮奖(提名) 马丁·麦克唐纳

  第75届金球奖 ?(2018)
  电影类最佳剧情片
  电影类最佳导演(提名) 马丁·麦克唐纳
  电影类剧情片最佳女主角 弗兰西斯·麦克多蒙德
  电影类最佳男配角 山姆·洛克威尔
  电影类最佳编剧 马丁·麦克唐纳
  电影类最佳原创配乐(提名) 卡特·伯韦尔

  第71届英国电影学院奖 ?(2018)
  电影奖最佳影片
  电影奖最佳英国影片
  电影奖最佳导演(提名) 马丁·麦克唐纳
  电影奖最佳女主角 弗兰西斯·麦克多蒙德
  电影奖最佳男配角 山姆·洛克威尔
  电影奖最佳男配角(提名) 伍迪·哈里森
  电影奖最佳原创剧本 马丁·麦克唐纳
  电影奖最佳摄影(提名) 本·戴维斯
  电影奖最佳剪辑(提名)
DISC INFO:

Disc Title:     Three.Billboards.Outside.Ebbing.Missouri.2017.2160p.BluRay.HEVC.DTS-HD.MA.5.1-TERMiNAL
Disc Size:      58,677,623,519 bytes
Protection:     AACS2
BD-Java:        Yes
Extras:         Ultra HD
BDInfo:         0.5.8.7 (compatible layout created by DVDFab 10.0.7.9)

PLAYLIST REPORT:

Name:                   00449.MPLS  
Length:                 1:55:20.830 (h:m:s.ms)
Size:                   57,612,736,512 bytes
Total Bitrate:          66.60 Mbps

VIDEO:

Codec                   Bitrate             Description     
-----                   -------             -----------     
MPEG-H HEVC Video       53316 kbps          2160p / 23.976 fps / 16:9 / Main 10 Profile 5.1 High / 4:2:0 / 10 bits / HDR / BT.2020 /

AUDIO:

Codec                           Language        Bitrate         Description     
-----                           --------        -------         -----------     
DTS-HD Master Audio             English         3625 kbps       5.1 / 48 kHz / 3625 kbps / 24-bit (DTS Core: 5.1 / 48 kHz / 1509 kbps / 24-bit)
Dolby Digital Audio             English         448 kbps        5.1 / 48 kHz / 448 kbps
Dolby Digital Audio             Spanish         448 kbps        5.1 / 48 kHz / 448 kbps
DTS Audio                       French          768 kbps        5.1 / 48 kHz / 768 kbps / 24-bit
DTS Audio                       Spanish         768 kbps        5.1 / 48 kHz / 768 kbps / 24-bit
DTS Audio                       German          768 kbps        5.1 / 48 kHz / 768 kbps / 24-bit
DTS Audio                       Italian         768 kbps        5.1 / 48 kHz / 768 kbps / 24-bit
Dolby Digital Audio             Czech           448 kbps        5.1 / 48 kHz / 448 kbps
Dolby Digital Audio             Polish          448 kbps        5.1 / 48 kHz / 448 kbps
DTS Audio                       Japanese        768 kbps        5.1 / 48 kHz / 768 kbps / 24-bit

SUBTITLES:

Codec                           Language        Bitrate         Description     
-----                           --------        -------         -----------     
Presentation Graphics           English         47.022 kbps                     
Presentation Graphics           Spanish         34.928 kbps                     
Presentation Graphics           French          36.286 kbps                     
Presentation Graphics           French          31.807 kbps                     
Presentation Graphics           Spanish         34.589 kbps                     
Presentation Graphics           Danish          34.878 kbps                     
Presentation Graphics           Dutch           30.722 kbps                     
Presentation Graphics           Finnish         33.833 kbps                     
Presentation Graphics           German          39.084 kbps                     
Presentation Graphics           Italian         33.644 kbps                     
Presentation Graphics           Norwegian       33.895 kbps                     
Presentation Graphics           Swedish         35.556 kbps                     
Presentation Graphics           中文         24.691 kbps                     
Presentation Graphics           Czech           30.072 kbps                     
Presentation Graphics           中文         25.219 kbps                     
Presentation Graphics           Polish          27.821 kbps                     
Presentation Graphics           Japanese        20.113 kbps                     
Presentation Graphics           Japanese        0.209 kbps  


俄版基本信息
MediaInfo
General
Complete name                            : Three.Billboards.Outside.Ebbing.Missouri.2017.2160p.UHD.BDRemux.DTS-HD.MA.5.1.P8.HYBRID.DoVi-DVT.mkv
Format                                   : Matroska
Format version                           : Version 4
File size                                : 61.6 GiB
Duration                                 : 1 h 55 min
Overall bit rate mode                    : Variable
Overall bit rate                         : 76.4 Mb/s
Movie name                               : Three Billboards Outside Ebbing, Missouri (2017)
Encoded date                             : UTC 2021-12-12 13:17:03
Writing application                      : mkvmerge v62.0.0 ('Apollo') 64-bit
Writing library                          : libebml v1.4.2 + libmatroska v1.6.4

Video
ID                                       : 1
Format                                   : HEVC
Format/Info                              : High Efficiency Video Coding
Format profile                           : Main 10@L5.1@High
HDR format                               : Dolby Vision, Version 1.0, dvhe.08.06, BL+RPU, HDR10 compatible / SMPTE ST 2086, HDR10 compatible
Codec ID                                 : V_MPEGH/ISO/HEVC
Duration                                 : 1 h 55 min
Bit rate                                 : 53.3 Mb/s
Width                                    : 3 840 pixels
Height                                   : 2 160 pixels
Display aspect ratio                     : 16:9
Frame rate mode                          : Constant
Frame rate                               : 23.976 (24000/1001) FPS
Color space                              : YUV
Chroma subsampling                       : 4:2:0 (Type 2)
Bit depth                                : 10 bits
Bits/(Pixel*Frame)                       : 0.268
Stream size                              : 43.0 GiB (70%)
Title                                    : Three Billboards Outside Ebbing, Missouri (2017) - Release by Dolby Vision Torrents
Language                                 : English
Default                                  : Yes
Forced                                   : No
Color range                              : Limited
Color primaries                          : BT.2020
Transfer characteristics                 : PQ
Matrix coefficients                      : BT.2020 non-constant
Mastering display color primaries        : Display P3
Mastering display luminance              : min: 0.0050 cd/m2, max: 1000 cd/m2

Audio #1
ID                                       : 2
Format                                   : DTS
Format/Info                              : Digital Theater Systems
Codec ID                                 : A_DTS
Duration                                 : 1 h 55 min
Bit rate mode                            : Constant
Bit rate                                 : 768 kb/s
Channel(s)                               : 6 channels
Channel layout                           : C L R Ls Rs LFE
Sampling rate                            : 48.0 kHz
Frame rate                               : 93.750 FPS (512 SPF)
Bit depth                                : 24 bits
Compression mode                         : Lossy
Stream size                              : 634 MiB (1%)
Title                                    : Dub, Blu-Ray
Language                                 : Russian
Default                                  : Yes
Forced                                   : No

Audio #2
ID                                       : 3
Format                                   : DTS XLL
Format/Info                              : Digital Theater Systems
Commercial name                          : DTS-HD Master Audio
Codec ID                                 : A_DTS
Duration                                 : 1 h 55 min
Bit rate mode                            : Variable
Bit rate                                 : 3 640 kb/s
Channel(s)                               : 6 channels
Channel layout                           : C L R Ls Rs LFE
Sampling rate                            : 48.0 kHz
Frame rate                               : 93.750 FPS (512 SPF)
Bit depth                                : 24 bits
Compression mode                         : Lossless
Stream size                              : 2.93 GiB (5%)
Title                                    : DVO, Кубик в Кубе
Language                                 : Russian
Default                                  : No
Forced                                   : No

Audio #3
ID                                       : 4
Format                                   : DTS XLL
Format/Info                              : Digital Theater Systems
Commercial name                          : DTS-HD Master Audio
Codec ID                                 : A_DTS
Duration                                 : 1 h 55 min
Bit rate mode                            : Variable
Bit rate                                 : 3 658 kb/s
Channel(s)                               : 6 channels
Channel layout                           : C L R Ls Rs LFE
Sampling rate                            : 48.0 kHz
Frame rate                               : 93.750 FPS (512 SPF)
Bit depth                                : 24 bits
Compression mode                         : Lossless
Stream size                              : 2.95 GiB (5%)
Title                                    : VO, Д.Есарев
Language                                 : Russian
Default                                  : No
Forced                                   : No

Audio #4
ID                                       : 5
Format                                   : DTS XLL
Format/Info                              : Digital Theater Systems
Commercial name                          : DTS-HD Master Audio
Codec ID                                 : A_DTS
Duration                                 : 1 h 55 min
Bit rate mode                            : Variable
Bit rate                                 : 3 654 kb/s
Channel(s)                               : 6 channels
Channel layout                           : C L R Ls Rs LFE
Sampling rate                            : 48.0 kHz
Frame rate                               : 93.750 FPS (512 SPF)
Bit depth                                : 24 bits
Compression mode                         : Lossless
Stream size                              : 2.94 GiB (5%)
Title                                    : AVO, Ю.Сербин
Language                                 : Russian
Default                                  : No
Forced                                   : No

Audio #5
ID                                       : 6
Format                                   : DTS XLL
Format/Info                              : Digital Theater Systems
Commercial name                          : DTS-HD Master Audio
Codec ID                                 : A_DTS
Duration                                 : 1 h 55 min
Bit rate mode                            : Variable
Bit rate                                 : 3 659 kb/s
Channel(s)                               : 6 channels
Channel layout                           : C L R Ls Rs LFE
Sampling rate                            : 48.0 kHz
Frame rate                               : 93.750 FPS (512 SPF)
Bit depth                                : 24 bits
Compression mode                         : Lossless
Stream size                              : 2.95 GiB (5%)
Title                                    : VO, М.Яроцкий
Language                                 : Russian
Default                                  : No
Forced                                   : No

Audio #6
ID                                       : 7
Format                                   : AC-3
Format/Info                              : Audio Coding 3
Commercial name                          : Dolby Digital
Codec ID                                 : A_AC3
Duration                                 : 1 h 55 min
Bit rate mode                            : Constant
Bit rate                                 : 448 kb/s
Channel(s)                               : 6 channels
Channel layout                           : L R C LFE Ls Rs
Sampling rate                            : 48.0 kHz
Frame rate                               : 31.250 FPS (1536 SPF)
Compression mode                         : Lossy
Stream size                              : 370 MiB (1%)
Title                                    : Dub, Blu-Ray
Language                                 : Ukrainian
Service kind                             : Complete Main
Default                                  : No
Forced                                   : No

Audio #7
ID                                       : 8
Format                                   : DTS XLL
Format/Info                              : Digital Theater Systems
Commercial name                          : DTS-HD Master Audio
Codec ID                                 : A_DTS
Duration                                 : 1 h 55 min
Bit rate mode                            : Variable
Bit rate                                 : 3 610 kb/s
Channel(s)                               : 6 channels
Channel layout                           : C L R Ls Rs LFE
Sampling rate                            : 48.0 kHz
Frame rate                               : 93.750 FPS (512 SPF)
Bit depth                                : 24 bits
Compression mode                         : Lossless
Stream size                              : 2.91 GiB (5%)
Title                                    : MVO, НеЗупиняй Продакшн
Language                                 : Ukrainian
Default                                  : No
Forced                                   : No

Audio #8
ID                                       : 9
Format                                   : DTS XLL
Format/Info                              : Digital Theater Systems
Commercial name                          : DTS-HD Master Audio
Codec ID                                 : A_DTS
Duration                                 : 1 h 55 min
Bit rate mode                            : Variable
Bit rate                                 : 3 625 kb/s
Channel(s)                               : 6 channels
Channel layout                           : C L R Ls Rs LFE
Sampling rate                            : 48.0 kHz
Frame rate                               : 93.750 FPS (512 SPF)
Bit depth                                : 24 bits
Compression mode                         : Lossless
Stream size                              : 2.92 GiB (5%)
Title                                    : DTS-HD MA 5.1
Language                                 : English
Default                                  : No
Forced                                   : No

Text #1
ID                                       : 10
Format                                   : UTF-8
Codec ID                                 : S_TEXT/UTF8
Codec ID/Info                            : UTF-8 Plain Text
Duration                                 : 7 min 12 s
Bit rate                                 : 4 b/s
Count of elements                        : 5
Stream size                              : 262 Bytes (0%)
Title                                    : Forced
Language                                 : Russian
Default                                  : Yes
Forced                                   : No

Text #2
ID                                       : 11
Format                                   : UTF-8
Codec ID                                 : S_TEXT/UTF8
Codec ID/Info                            : UTF-8 Plain Text
Duration                                 : 1 h 46 min
Bit rate                                 : 99 b/s
Count of elements                        : 1367
Stream size                              : 77.6 KiB (0%)
Title                                    : Full
Language                                 : Russian
Default                                  : No
Forced                                   : No

Text #3
ID                                       : 12
Format                                   : UTF-8
Codec ID                                 : S_TEXT/UTF8
Codec ID/Info                            : UTF-8 Plain Text
Duration                                 : 1 h 53 min
Bit rate                                 : 79 b/s
Count of elements                        : 1157
Stream size                              : 66.5 KiB (0%)
Title                                    : Full
Language                                 : Ukrainian
Default                                  : No
Forced                                   : No

Text #4
ID                                       : 13
Format                                   : UTF-8
Codec ID                                 : S_TEXT/UTF8
Codec ID/Info                            : UTF-8 Plain Text
Duration                                 : 1 h 49 min
Bit rate                                 : 64 b/s
Count of elements                        : 1594
Stream size                              : 52.3 KiB (0%)
Title                                    : Full
Language                                 : English
Default                                  : No
Forced                                   : No

Text #5
ID                                       : 14
Format                                   : UTF-8
Codec ID                                 : S_TEXT/UTF8
Codec ID/Info                            : UTF-8 Plain Text
Duration                                 : 1 h 49 min
Bit rate                                 : 60 b/s
Count of elements                        : 1657
Stream size                              : 48.6 KiB (0%)
Title                                    : SDH
Language                                 : English
Default                                  : No
Forced                                   : No

Menu
00:00:00.000                             : :Chapter 1
00:05:42.092                             : :Chapter 2
00:08:56.911                             : :Chapter 3
00:12:50.019                             : :Chapter 4
00:19:46.644                             : :Chapter 5
00:23:43.547                             : :Chapter 6
00:27:36.363                             : :Chapter 7
00:31:35.769                             : :Chapter 8
00:35:08.690                             : :Chapter 9
00:40:54.827                             : :Chapter 10
00:44:35.715                             : :Chapter 11
00:49:18.789                             : :Chapter 12
00:55:35.916                             : :Chapter 13
00:59:56.134                             : :Chapter 14
01:04:09.888                             : :Chapter 15
01:10:55.293                             : :Chapter 16
01:15:36.699                             : :Chapter 17
01:23:08.734                             : :Chapter 18
01:27:24.489                             : :Chapter 19
01:35:49.702                             : :Chapter 20
01:40:32.693                             : :Chapter 21
01:44:02.194                             : :Chapter 22
01:46:56.910                             : :Chapter 23
01:49:55.005                             : :Chapter 24

4K蓝光[原盘+REMUX]资源,新种推荐使用qBittorrent、uTorrent等下载软件,有条件的推荐115更好的下载软件!

三块广告牌(54.65GB)Three.Billboards.Outside.Ebbing.Missouri.2017.2160p.BluRay.HEVC.DTS-HD.MA.5.1-TERMiNAL-【4K-蓝光原盘
游客,如果您要查看本帖隐藏内容请回复

三块广告牌(50.62GB)Three.Billboards.Outside.Ebbing.Missouri.2017.2160p.BluRay.REMUX.HEVC.DTS-HD.MA.5.1-FGT-【4K-蓝光REMUX】
游客,如果您要查看本帖隐藏内容请回复

三块广告牌(30.10GB)Three.Billboards.Outside.Ebbing.Missouri.2017.2160p.BluRay.x264.8bit.SDR.DTS-HD.MA.5.1-SWTYBLZ
游客,如果您要查看本帖隐藏内容请回复

三块广告牌(27.83GB)Three.Billboards.Outside.Ebbing.Missouri.2017.2160p.BluRay.x265.10bit.SDR.DTS-HD.MA.5.1-SWTYBLZ
游客,如果您要查看本帖隐藏内容请回复

三块广告牌(14.44GB)Three.Billboards.Outside.Ebbing.Missouri.2017.2160p.UHD.BluRay.x265.10bit.HDR.DTS-HD.MA.5.1-IAMABLE
游客,如果您要查看本帖隐藏内容请回复


4K蓝光REMUX俄版资源
三块广告牌(61.58GB)Three.Billboards.Outside.Ebbing.Missouri.2017.2160p.UHD.BDRemux.DTS-HD.MA.5.1.P8.HYBRID.DoVi-DVT-【4K-蓝光REMUX】
****此区域为收费内容****    需支付 30 金币后可查看立即购买





1心,爱心.gif


上一篇:平安夜 / Silent Night (2021) 4K蓝光[原盘+REMUX]版本下载
下一篇:水形物语 (内嵌中字) (2017) 4K蓝光[原盘+REMUX]版本下载[补档]
回复

使用道具 举报

2

主题

1598

帖子

4394

积分

4K家园VIP

Rank: 9Rank: 9Rank: 9

积分
4394
发表于 2021-12-14 12:21:16 来自手机 | 显示全部楼层
4K家园资源最近貌似越来越多了
回复 支持 反对

使用道具 举报

0

主题

7237

帖子

1万

积分

4K家园VIP

Rank: 9Rank: 9Rank: 9

积分
16569
发表于 2021-12-14 14:46:00 | 显示全部楼层
太好啦&萬分感謝版主的無私發佈分享%
回复 支持 反对

使用道具 举报

1

主题

1316

帖子

3796

积分

4K家园VIP

Rank: 9Rank: 9Rank: 9

积分
3796
发表于 2021-12-15 03:59:43 | 显示全部楼层
4K家园资源不错,前排支持
回复 支持 反对

使用道具 举报

3

主题

1576

帖子

4322

积分

4K家园VIP

Rank: 9Rank: 9Rank: 9

积分
4322
发表于 2021-12-15 19:34:32 | 显示全部楼层
支持一下楼主,顶起来
回复 支持 反对

使用道具 举报

39

主题

1446

帖子

4132

积分

4K家园VIP

Rank: 9Rank: 9Rank: 9

积分
4132
发表于 2021-12-15 22:48:21 | 显示全部楼层
多发些资源啊
回复 支持 反对

使用道具 举报

1

主题

1203

帖子

3627

积分

4K家园VIP

Rank: 9Rank: 9Rank: 9

积分
3627
发表于 2021-12-16 23:29:32 | 显示全部楼层
还有没有别的资源,多分享些
回复 支持 反对

使用道具 举报

0

主题

2

帖子

892

积分

新手上路

Rank: 1

积分
892
发表于 2021-12-17 11:51:21 | 显示全部楼层
回复

使用道具 举报

0

主题

7

帖子

40

积分

新手上路

Rank: 1

积分
40
发表于 2022-1-2 09:02:22 | 显示全部楼层
4K家园资源最近貌似越来越多了
回复 支持 反对

使用道具 举报

0

主题

4

帖子

19

积分

新手上路

Rank: 1

积分
19
发表于 2022-1-2 14:17:29 | 显示全部楼层
听说很好看 下来看看
回复 支持 反对

使用道具 举报

您需要登录后才可以回帖 登录 | 立即注册

本版积分规则

精彩图文
Archiver|手机版|TAG|Sitemap|新帖|专题|联系我们:邮箱: 4kjia.com@gmail.com   

4k家园   ©2019