[4K UHD 蓝光原盘] 黑色安息日 / I tre volti della paura (1963) 4K蓝光REMUX版本下载

[复制链接]

1314

主题

1381

帖子

1万

积分

超级版主

Rank: 8Rank: 8

积分
15409
 楼主| 发表于 2021-12-23 11:01:14 | 显示全部楼层 |阅读模式
本帖最后由 没完没了 于 2021-12-23 12:14 编辑

QQ图片20211223104714_副本.png

◎译  名 黑色安息日 / 吓人三次 / Black Sabbath
◎片  名 I tre volti della paura
◎年  代 1963
◎产  地 法国 / 意大利 / 美国
◎类  别 恐怖
◎语  言 意大利语
◎上映日期 1963-08-17
◎IMDb评分  7.1/10 from 11539 users
◎IMDb链接  https://www.imdb.com/title/tt0057603/
◎豆瓣评分 7.1/10 from 801 users
◎豆瓣链接 https://movie.douban.com/subject/1300568/
◎片  长 92分钟
◎导  演 马里奥·巴瓦
◎编  剧 马里奥·巴瓦 / 阿尔贝托·贝维拉夸 / 马尔切洛·丰达托 / 阿列克谢·托尔斯泰 / F·G·斯奈德
◎主  演 波利斯·卡洛夫
                   米歇尔·梅奇
                   利迪娅·阿方西
                   马克·达蒙
                   苏茜·安德森
                   格劳科·奥诺拉托
                   雅克莉娜·皮埃勒
                   米莉
                   哈丽特·梅丁


◎简  介

     《黑色安息日》是1963年由马里奥·巴瓦执导的一部意大利恐怖电影。鲍里斯·卡洛夫除了出现在链接段落中,还在《武达拉克》(根据阿列克谢·康斯坦丁诺维奇·托尔斯泰的故事改编)中扮演了一个角色。这部电影由三个恐怖故事组成,另外两个是《水滴》和《电话》。
General
Complete name                  : E:\4K@蓝光REMUX\Black.Sabbath.1963.4K.SDR.2160p.BDRemux Ita Fre x265-NAHOM.mkv
Format                         : Matroska
Format version                 : Version 4
File size                      : 52.0 GiB
Duration                       : 1 h 32 min
Overall bit rate               : 80.8 Mb/s
Movie name                     : Black Sabbath 1963 4K
Encoded date                   : UTC 2021-12-22 15:24:03
Writing application            : mkvmerge v61.0.0 ('So') 32-bit
Writing library                : libebml v1.4.2 + libmatroska v1.6.4
IsTruncated                    : Yes

Video
ID                             : 1
Format                         : HEVC
Format/Info                    : High Efficiency Video Coding
Format profile                 : Main 10@L5.1@High
Codec ID                       : V_MPEGH/ISO/HEVC
Duration                       : 1 h 32 min
Bit rate                       : 76.3 Mb/s
Width                          : 3 840 pixels
Height                         : 2 160 pixels
Display aspect ratio           : 16:9
Frame rate mode                : Constant
Frame rate                     : 24.000 FPS
Color space                    : YUV
Chroma subsampling             : 4:2:0
Bit depth                      : 10 bits
Bits/(Pixel*Frame)             : 0.383
Stream size                    : 49.1 GiB (94%)
Writing library                : x265 3.4+27-g5163c32d7:[Windows][GCC 10.2.0][64 bit] 10bit
Encoding settings              : cpuid=1111039 / frame-threads=6 / numa-pools=48,0,0,0,0,0,0 / wpp / no-pmode / no-pme / no-psnr / no-ssim / log-level=2 / input-csp=1 / input-res=3840x2160 / interlace=0 / total-frames=0 / level-idc=51 / high-tier=1 / uhd-bd=1 / ref=3 / no-allow-non-conformance / repeat-headers / annexb / aud / hrd / info / hash=0 / no-temporal-layers / no-open-gop / min-keyint=1 / keyint=24 / gop-lookahead=0 / bframes=4 / b-adapt=2 / b-pyramid / bframe-bias=0 / rc-lookahead=20 / lookahead-slices=8 / scenecut=40 / hist-scenecut=0 / radl=0 / no-splice / no-intra-refresh / ctu=64 / min-cu-size=8 / no-rect / no-amp / max-tu-size=32 / tu-inter-depth=1 / tu-intra-depth=1 / limit-tu=0 / rdoq-level=0 / dynamic-rd=0.00 / no-ssim-rd / signhide / no-tskip / nr-intra=0 / nr-inter=0 / no-constrained-intra / strong-intra-smoothing / max-merge=3 / limit-refs=1 / no-limit-modes / me=1 / subme=2 / merange=57 / temporal-mvp / no-frame-dup / no-hme / weightp / no-weightb / no-analyze-src-pics / deblock=0:0 / sao / no-sao-non-deblock / rd=3 / selective-sao=4 / early-skip / rskip / no-fast-intra / no-tskip-fast / no-cu-lossless / b-intra / no-splitrd-skip / rdpenalty=0 / psy-rd=2.00 / psy-rdoq=0.00 / no-rd-refine / no-lossless / cbqpoffs=0 / crqpoffs=0 / rc=cbr / bitrate=78000 / qcomp=0.60 / qpstep=4 / stats-write=0 / stats-read=0 / vbv-maxrate=78000 / vbv-bufsize=82000 / vbv-init=0.8 / min-vbv-fullness=50.0 / max-vbv-fullness=80.0 / ipratio=1.40 / pbratio=1.30 / aq-mode=1 / aq-strength=1.00 / cutree / zone-count=0 / no-strict-cbr / qg-size=32 / no-rc-grain / qpmax=69 / qpmin=0 / no-const-vbv / sar=1 / overscan=0 / videoformat=5 / range=0 / colorprim=1 / transfer=1 / colormatrix=1 / chromaloc=0 / display-window=0 / cll=0,0 / min-luma=0 / max-luma=1023 / log2-max-poc-lsb=8 / vui-timing-info / vui-hrd-info / slices=1 / no-opt-qp-pps / no-opt-ref-list-length-pps / no-multi-pass-opt-rps / scenecut-bias=0.05 / hist-threshold=0.03 / no-opt-cu-delta-qp / no-aq-motion / no-hdr10 / no-hdr10-opt / no-dhdr10-opt / no-idr-recovery-sei / analysis-reuse-level=0 / analysis-save-reuse-level=0 / analysis-load-reuse-level=0 / scale-factor=0 / refine-intra=0 / refine-inter=0 / refine-mv=1 / refine-ctu-distortion=0 / no-limit-sao / ctu-info=0 / no-lowpass-dct / refine-analysis-type=0 / copy-pic=1 / max-ausize-factor=1.0 / no-dynamic-refine / no-single-sei / no-hevc-aq / no-svt / no-field / qp-adaptation-range=1.00 / no-scenecut-aware-qpconformance-window-offsets / right=0 / bottom=0 / decoder-max-rate=0 / no-vbv-live-multi-pass
Default                        : Yes
Forced                         : No
Color range                    : Limited
Color primaries                : BT.709
Transfer characteristics       : BT.709
Matrix coefficients            : BT.709

Audio #1
ID                             : 2
Format                         : DTS
Format/Info                    : Digital Theater Systems
Codec ID                       : A_DTS
Duration                       : 1 h 32 min
Bit rate mode                  : Constant
Bit rate                       : 1 344 kb/s
Channel(s)                     : 2 channels
Channel layout                 : L R
Sampling rate                  : 48.0 kHz
Frame rate                     : 93.750 FPS (512 SPF)
Bit depth                      : 16 bits
Compression mode               : Lossy
Stream size                    : 886 MiB (2%)
Language                       : Italian
Default                        : Yes
Forced                         : No

Audio #2
ID                             : 3
Format                         : DTS
Format/Info                    : Digital Theater Systems
Codec ID                       : A_DTS
Duration                       : 1 h 32 min
Bit rate mode                  : Constant
Bit rate                       : 1 344 kb/s
Channel(s)                     : 2 channels
Channel layout                 : L R
Sampling rate                  : 48.0 kHz
Frame rate                     : 93.750 FPS (512 SPF)
Bit depth                      : 16 bits
Compression mode               : Lossy
Stream size                    : 886 MiB (2%)
Language                       : French
Default                        : No
Forced                         : No

Audio #3
ID                             : 4
Format                         : AC-3
Format/Info                    : Audio Coding 3
Commercial name                : Dolby Digital
Codec ID                       : A_AC3
Duration                       : 1 h 32 min
Bit rate mode                  : Constant
Bit rate                       : 224 kb/s
Channel(s)                     : 2 channels
Channel layout                 : L R
Sampling rate                  : 48.0 kHz
Frame rate                     : 31.250 FPS (1536 SPF)
Compression mode               : Lossy
Stream size                    : 148 MiB (0%)
Language                       : Italian
Service kind                   : Complete Main
Default                        : No
Forced                         : No

Text #1
ID                             : 5
Format                         : UTF-8
Codec ID                       : S_TEXT/UTF8
Codec ID/Info                  : UTF-8 Plain Text
Language                       : English
Default                        : No
Forced                         : No

Text #2
ID                             : 6
Format                         : UTF-8
Codec ID                       : S_TEXT/UTF8
Codec ID/Info                  : UTF-8 Plain Text
Default                        : Yes
Forced                         : No

迅雷下载资源速度为零或资源敏感被和谐时,推荐使用qBittorrent等下载软件,有条件的推荐115更好的下载软件!

黑色安息日(52.03GB)Black.Sabbath.1963.4K.SDR.2160p.BDRemux Ita Fre x265-NAHOM -【4K-蓝光REMUX】
游客,如果您要查看本帖隐藏内容请回复


1心,爱心.gif

上一篇:连锁阴谋 / Conspiracy Theory (1997) 4K蓝光版本下载
下一篇:冰路营救 / The Ice Road (2021) 4K蓝光[原盘+REMUX]版本下载
回复

使用道具 举报

3

主题

1332

帖子

4014

积分

4K家园VIP

Rank: 9Rank: 9Rank: 9

积分
4014
发表于 2021-12-23 11:01:18 | 显示全部楼层
这个资源我记得是一套的,楼主还有没有
回复 支持 反对

使用道具 举报

0

主题

1346

帖子

3836

积分

中级会员

Rank: 4

积分
3836
发表于 2021-12-23 11:30:39 | 显示全部楼层
4K家园资源不错,前排支持
回复 支持 反对

使用道具 举报

0

主题

7280

帖子

1万

积分

4K家园VIP

Rank: 9Rank: 9Rank: 9

积分
16651
发表于 2021-12-23 12:50:11 | 显示全部楼层
太好啦&萬分感謝版主的無私發佈分享%
回复 支持 反对

使用道具 举报

37

主题

1466

帖子

4198

积分

4K家园VIP

Rank: 9Rank: 9Rank: 9

积分
4198
发表于 2021-12-23 13:03:41 | 显示全部楼层
你们要是有4K资源记得分享,别小气
回复 支持 反对

使用道具 举报

46

主题

1474

帖子

4266

积分

4K家园VIP

Rank: 9Rank: 9Rank: 9

积分
4266
发表于 2021-12-23 13:11:36 | 显示全部楼层
4K家园资源不错,前排支持
回复 支持 反对

使用道具 举报

56

主题

1512

帖子

4420

积分

4K家园VIP

Rank: 9Rank: 9Rank: 9

积分
4420
发表于 2021-12-23 13:40:18 | 显示全部楼层
这个资源我记得是一套的,楼主还有没有
回复 支持 反对

使用道具 举报

您需要登录后才可以回帖 登录 | 立即注册

本版积分规则

精彩图文
Archiver|手机版|TAG|Sitemap|新帖|专题|联系我们:邮箱: 4kjia.com@gmail.com   

4k家园   ©2019