[4K电影] 赛车总动员3:极速挑战 / Cars 3 (2017) 4K高清版本下载

[复制链接]

1339

主题

1444

帖子

1万

积分

超级版主

Rank: 8Rank: 8

积分
11232
 楼主| 发表于 2021-12-27 13:22:29 | 显示全部楼层 |阅读模式

p2504778171_副本.jpg

◎译  名 赛车总动员3:极速挑战/Cars 3:闪电再起(台)/反斗车王3(港)/小汽车的故事3/汽车总动员3/赛车总动员3/飞车正传3
◎片  名 Cars 3
◎年  代 2017
◎产  地 美国
◎类  别 喜剧 / 动画 / 冒险
◎语  言 英语
◎上映日期 2017-06-16(美国) / 2017-08-25(中国大陆)
◎豆瓣评分 7.0/10 from 47098 users
◎豆瓣链接 https://movie.douban.com/subject/25849480/
◎片  长 102分钟
◎导  演 布莱恩·菲 Brian Fee
◎编  剧 布莱恩·菲 Brian Fee / 本·奎因 Ben Queen / 伊尔·波戴尔 Eyal Podell / 乔纳森·E·斯图尔特 Jonathon E. Stewart / 基尔·默里 Kiel Murray / 鲍勃·彼德森 Bob Peterson / 迈克·里奇 Mike Rich / 丹尼尔·吉尔森 Daniel Gerson
◎主  演 欧文·威尔逊 Owen Wilson
      克里斯黛拉·阿朗索 Cristela Alonzo
      克里斯·库珀 Chris Cooper
      内森·菲利安 Nathan Fillion
      王牌接线员拉里 Larry The Cable Guy
      艾米·汉莫 Armie Hammer
      雷·马格利奥齐 Ray Magliozzi
      托尼·夏尔赫布 Tony Shalhoub
      邦尼·亨特 Bonnie Hunt
      丽亚·德拉利亚 Lea DeLaria
      凯丽·华盛顿 Kerry Washington
      鲍勃·科斯塔斯 Bob Costas
      玛格·马丁戴尔 Margo Martindale
      达雷尔·沃尔特里普 Darrell Waltrip
      小伊塞亚·维特洛克 Isiah Whitlock Jr.
      保罗·杜利 Paul Dooley
      凯瑟琳·海蒙德 Katherine Helmond
      切奇·马林 Cheech Marin
      黄磊 Lei Huang


◎简  介

  征战沙场多年,闪电麦昆(欧文·威尔逊 Owen Wilson 配音)早已成为经验丰富的老将。对于现在的他来说,比赛更像与老友们的聚会,大家共同享受狂奔带来的乐趣。然而这和谐的一幕很快被残酷的现实打破,以风暴杰克逊(艾米·汉莫 Armie Hammer 配音)为代表的次世代高科技赛车相继步入赛场,他们凭借更加优良的性能与高科技的组装改造将老一代赛车一一淘汰,甚至包括王者麦昆。四个月后,伤愈的麦昆决定复出,而他也被合作多年的赞助商转到了斯特林(内森·菲利安 Nathan Fillion 配音)麾下。接受从内到外的全新改造后,麦昆在教练科鲁兹·拉米雷斯(克里斯黛拉·阿朗索 Cristela Alonzo 配音)的监督下展开训练。然而他面临着一项严峻的考验,如果他不能在接下来的比赛中取得胜利,那么他必须从此退休。

  希望渺茫,不服输的麦昆能否重新取得胜利的荣光……

◎获奖情况

  第45届动画安妮奖 ?(2018)
  最佳动画长片(提名)
  最佳动画效果(提名)

  第22届美国艺术指导工会奖 ?(2018)
  电影奖最佳动画电影艺术指导(提名)

  第16届美国视觉效果协会奖 ?(2018)
  最佳动画电影视觉效果(提名)
  最佳动画电影CG背景(提名)
  最佳动画电影模拟动画效果(提名)

  第54届美国声音效果协会奖 ?(2018)
  动画电影最佳音效(提名)

  第22届金卫星奖 ?(2018)
  电影部门最佳动画片(提名)

General
Complete name                  : H:\4K@电影\Cars.3.2017.2160p.WEB-DL.TrueHD.Atmos.7.1.DV.HEVC-NOSiViD.mkv
Format                         : Matroska
Format version                 : Version 4
File size                      : 21.1 GiB
Duration                       : 1 h 42 min
Overall bit rate mode          : Variable
Overall bit rate               : 29.6 Mb/s
Movie name                     : Cars 3 (2017)
Encoded date                   : UTC 2021-12-05 10:27:37
Writing application            : mkvmerge v63.0.0 ('Everything') 64-bit
Writing library                : libebml v1.4.2 + libmatroska v1.6.4
IMDB                           : tt3606752
TMDB                           : movie/260514

Video
ID                             : 1
Format                         : HEVC
Format/Info                    : High Efficiency Video Coding
Format profile                 : Main 10@L5@High
HDR format                     : Dolby Vision, Version 1.0, dvhe.05.06, BL+RPU
Codec ID                       : V_MPEGH/ISO/HEVC
Duration                       : 1 h 42 min
Bit rate                       : 24.0 Mb/s
Width                          : 3 840 pixels
Height                         : 1 608 pixels
Display aspect ratio           : 2.40:1
Frame rate mode                : Constant
Frame rate                     : 23.976 (24000/1001) FPS
Color space                    : YUV
Chroma subsampling             : 4:2:0
Bit depth                      : 10 bits
Bits/(Pixel*Frame)             : 0.162
Stream size                    : 17.1 GiB (81%)
Default                        : Yes
Forced                         : No

Audio #1
ID                             : 2
Format                         : MLP FBA 16-ch
Format/Info                    : Meridian Lossless Packing FBA with 16-channel presentation
Commercial name                : Dolby TrueHD with Dolby Atmos
Codec ID                       : A_TRUEHD
Duration                       : 1 h 42 min
Bit rate mode                  : Variable
Bit rate                       : 4 896 kb/s
Maximum bit rate               : 6 966 kb/s
Channel(s)                     : 8 channels
Channel layout                 : L R C LFE Ls Rs Lb Rb
Sampling rate                  : 48.0 kHz
Frame rate                     : 1 200.000 FPS (40 SPF)
Compression mode               : Lossless
Stream size                    : 3.50 GiB (17%)
Title                          : TrueHD Atmos 7.1
Language                       : English
Default                        : Yes
Forced                         : No
Number of dynamic objects      : 13
Bed channel count              : 1 channel
Bed channel configuration      : LFE

Audio #2
ID                             : 3
Format                         : AC-3
Format/Info                    : Audio Coding 3
Commercial name                : Dolby Digital
Codec ID                       : A_AC3
Duration                       : 1 h 42 min
Bit rate mode                  : Constant
Bit rate                       : 640 kb/s
Channel(s)                     : 6 channels
Channel layout                 : L R C LFE Ls Rs
Sampling rate                  : 48.0 kHz
Frame rate                     : 31.250 FPS (1536 SPF)
Compression mode               : Lossy
Delay relative to video        : 1 ms
Stream size                    : 469 MiB (2%)
Title                          : AC-3 5.1
Language                       : English
Service kind                   : Complete Main
Default                        : No
Forced                         : No

Text #1
ID                             : 4
Format                         : UTF-8
Codec ID                       : S_TEXT/UTF8
Codec ID/Info                  : UTF-8 Plain Text
Duration                       : 1 h 40 min
Bit rate                       : 80 b/s
Count of elements              : 1865
Stream size                    : 59.6 KiB (0%)
Language                       : English
Default                        : No
Forced                         : No

Text #2
ID                             : 5
Format                         : UTF-8
Codec ID                       : S_TEXT/UTF8
Codec ID/Info                  : UTF-8 Plain Text
Duration                       : 1 h 40 min
Bit rate                       : 93 b/s
Count of elements              : 2107
Stream size                    : 68.9 KiB (0%)
Title                          : SDH
Language                       : English
Default                        : No
Forced                         : No

Text #3
ID                             : 6
Format                         : UTF-8
Codec ID                       : S_TEXT/UTF8
Codec ID/Info                  : UTF-8 Plain Text
Duration                       : 1 h 40 min
Bit rate                       : 78 b/s
Count of elements              : 1438
Stream size                    : 58.3 KiB (0%)
Title                          : Latin American
Language                       : Spanish
Default                        : No
Forced                         : No

Menu
00:00:00.000                   : en:Champ McQueen
00:04:56.424                   : en:Storm Front
00:10:54.157                   : en:Crash
00:13:58.591                   : en:Wake-up Call
00:18:14.513                   : enhone Call
00:21:06.810                   : en:Modern Training
00:34:08.049                   : eneal
00:37:51.272                   : en:Beach
00:42:43.981                   : en:Crazy Eight
00:49:43.567                   : en:Cruz's Dream
00:53:56.903                   : en:Facetime
00:58:16.871                   : en:Olive Branch
00:59:26.691                   : en:Smokey
01:02:15.109                   : en:Hud's Win
01:06:34.702                   : en:It's Over
01:08:32.278                   : en:Old School Training
01:15:47.295                   : en:Florida Arrival
01:20:57.021                   : enit Stop
01:29:41.587                   : en:Victory Lane
01:32:16.200                   : en:Epilogue
01:33:59.261                   : en:End Credits


迅雷下载资源速度为零或资源敏感被和谐时,推荐使用qBittorrent等下载软件,有条件的推荐115更好的下载软件!

下载地址

游客,如果您要查看本帖隐藏内容请回复







上一篇:赛车总动员 / Cars (2006) 4K高清版本下载
下一篇:寻梦环游记 / Coco (2017) 4K高清版本下载
回复

使用道具 举报

51

主题

1483

帖子

4269

积分

4K家园VIP

Rank: 9Rank: 9Rank: 9

积分
4269
发表于 2021-12-27 13:22:34 来自手机 | 显示全部楼层
出4K版啦,下个看看
回复 支持 反对

使用道具 举报

1

主题

1352

帖子

3866

积分

4K家园VIP

Rank: 9Rank: 9Rank: 9

积分
3866
发表于 2021-12-28 23:51:29 来自手机 | 显示全部楼层
呵呵。。。
回复 支持 反对

使用道具 举报

1

主题

1565

帖子

4299

积分

4K家园VIP

Rank: 9Rank: 9Rank: 9

积分
4299
发表于 2021-12-29 17:44:46 | 显示全部楼层
向楼主学习
回复 支持 反对

使用道具 举报

49

主题

1492

帖子

4306

积分

4K家园VIP

Rank: 9Rank: 9Rank: 9

积分
4306
发表于 2021-12-30 01:14:19 | 显示全部楼层
4K版的应该更清晰吧
回复 支持 反对

使用道具 举报

2

主题

1363

帖子

3939

积分

4K家园VIP

Rank: 9Rank: 9Rank: 9

积分
3939
发表于 2021-12-31 13:56:39 来自手机 | 显示全部楼层
4K家园资源不错,前排支持
回复 支持 反对

使用道具 举报

您需要登录后才可以回帖 登录 | 立即注册

本版积分规则

精彩图文
Archiver|手机版|TAG|Sitemap|新帖|专题|联系我们:邮箱: 4kjia.com@gmail.com   

4k家园   ©2019