[4K电影] 海底总动员2:多莉去哪儿 / Finding Dory (2016) 4K高清版本下载

[复制链接]

1323

主题

1428

帖子

1万

积分

超级版主

Rank: 8Rank: 8

积分
11131
 楼主| 发表于 2021-12-27 15:48:55 | 显示全部楼层 |阅读模式
本帖最后由 最爱4K哟 于 2021-12-29 16:43 编辑

p2600198470_副本.jpg

◎译  名 海底总动员2:多莉去哪儿/寻找多莉/海底奇兵2(港)/海底总动员2:寻找多莉
◎片  名 Finding Dory
◎年  代 2016
◎产  地 美国
◎类  别 喜剧 / 动画 / 冒险
◎语  言 英语
◎上映日期 2016-06-17(中国大陆/美国)
◎IMDb评分 7.3/10 from 233743 users
◎IMDb链接 https://www.imdb.com/title/tt2277860/
◎豆瓣评分 7.5/10 from 94602 users
◎豆瓣链接 https://movie.douban.com/subject/11524967/
◎片  长 97分钟
◎导  演 安德鲁·斯坦顿 Andrew Stanton / 安格斯·麦克莱恩 Angus MacLane
◎编  剧 安德鲁·斯坦顿 Andrew Stanton / 维多利亚·斯特劳斯 Victoria Strouse / 鲍勃·彼德森 Bob Peterson
◎主  演 艾伦·德杰尼勒斯 Ellen DeGeneres
      艾伯特·布鲁克斯 Albert Brooks
      艾德·奥尼尔 Ed O'Neill
      凯特琳·奥尔森 Kaitlin Olson
      海登·罗兰斯 Hayden Rolence
      泰·布利尔 Ty Burrell
      黛安·基顿 Diane Keaton
      尤金·列维 Eugene Levy
      斯隆·穆雷 Sloane Murray
      伊德里斯·艾尔巴 Idris Elba
      多米尼克·韦斯特 Dominic West
      鲍勃·彼德森 Bob Peterson
      凯特·麦克金农 Kate McKinnon
      比尔·哈德尔 Bill Hader
      西格妮·韦弗 Sigourney Weaver
      威廉·达福 Willem Dafoe
      亚历山大·古尔德 Alexander Gould
      加布里埃尔·C·布朗 Gabriel C. Brown
      薇姬·刘易斯 Vicki Lewis
      小特雷尔·兰森 Terrell Ransom Jr.

◎标  签 动画 | 美国 | 迪士尼 | 皮克斯 | 2016 | 喜剧 | 冒险 | 家庭

◎简  介

  患有短期健忘症的多莉(艾伦·德杰尼勒斯 Ellen DeGeneres 配音)曾经也拥有美好的家庭,然而一连串的意外让她与和蔼可亲的父母失散。此去经年,多莉邂逅了小丑鱼父子马林(艾伯特·布鲁克斯 Albert Brooks 配音)和尼莫(海登·罗兰斯 Hayden Rolence 配音),与他们经历了前所未有的大冒险。平静的日子里,童年时期的片段记忆突然闯入多莉的脑海,于是她再度踏上寻找父母的旅程。这一次,她来到了海洋生物博物馆,遇到了不打算回到大海的章鱼汉克(艾德·奥尼尔 Ed O'Neill 配音)以及童年时的朋友鲸鲨运儿(凯特琳·奥尔森 Kaitlin Olson 配音)。循着记忆中的蛛丝马迹,她离父母越来越近。然而在这一过程中,她又和马林父子失散了。

  对友情、亲情的执着,让这群小家伙无论千难万险也要坚持到底……

◎获奖情况

  第70届英国电影学院奖 ?(2017)
  电影奖最佳动画片(提名) 安德鲁·斯坦顿

  第44届动画安妮奖 ?(2017)
  最佳动画长片(提名)
  最佳分镜(提名)
  最佳动画角色(提名)

  第28届美国制片人工会奖 ?(2017)
  最佳动画片制片人奖(提名)

  第15届美国视觉效果协会奖 ?(2017)
  最佳动画电影视觉效果(提名)
  最佳动画电影CG动画角色
  最佳动画电影CG背景(提名)
  最佳动画电影模拟动画效果(提名)

  第53届美国声音效果协会奖 ?(2017)
  动画电影最佳音效

  第22届美国评论家选择电影奖 ?(2017)
  最佳动画片(提名)

  第21届金卫星奖 ?(2017)
  电影部门最佳动画片(提名)

  第15届华盛顿影评人协会奖 ?(2016)
  最佳动画片(提名)
  最佳配音(提名) 艾伦·德杰尼勒斯

  第20届美国在线影评人协会奖 ?(2017)
  最佳动画片(提名)

General
Complete name                  : H:\4K@电影\Finding.Dory.2016.2160p.WEB-DL.TrueHD.Atmos.7.1.DV.HEVC-NOSiViD.mkv
Format                         : Matroska
Format version                 : Version 4
File size                      : 21.1 GiB
Duration                       : 1 h 37 min
Overall bit rate mode          : Variable
Overall bit rate               : 31.2 Mb/s
Movie name                     : Finding Dory (2016)
Encoded date                   : UTC 2021-12-05 09:42:29
Writing application            : mkvmerge v63.0.0 ('Everything') 64-bit
Writing library                : libebml v1.4.2 + libmatroska v1.6.4
IMDB                           : tt2277860
TMDB                           : movie/127380

Video
ID                             : 1
Format                         : HEVC
Format/Info                    : High Efficiency Video Coding
Format profile                 : Main 10@L5@High
HDR format                     : Dolby Vision, Version 1.0, dvhe.05.06, BL+RPU
Codec ID                       : V_MPEGH/ISO/HEVC
Duration                       : 1 h 37 min
Bit rate                       : 24.4 Mb/s
Width                          : 3 840 pixels
Height                         : 2 160 pixels
Display aspect ratio           : 16:9
Frame rate mode                : Constant
Frame rate                     : 23.976 (24000/1001) FPS
Color space                    : YUV
Chroma subsampling             : 4:2:0
Bit depth                      : 10 bits
Bits/(Pixel*Frame)             : 0.123
Stream size                    : 16.6 GiB (78%)
Default                        : Yes
Forced                         : No

Audio #1
ID                             : 2
Format                         : MLP FBA 16-ch
Format/Info                    : Meridian Lossless Packing FBA with 16-channel presentation
Commercial name                : Dolby TrueHD with Dolby Atmos
Codec ID                       : A_TRUEHD
Duration                       : 1 h 37 min
Bit rate mode                  : Variable
Bit rate                       : 6 047 kb/s
Maximum bit rate               : 7 845 kb/s
Channel(s)                     : 8 channels
Channel layout                 : L R C LFE Ls Rs Lb Rb
Sampling rate                  : 48.0 kHz
Frame rate                     : 1 200.000 FPS (40 SPF)
Compression mode               : Lossless
Stream size                    : 4.10 GiB (19%)
Title                          : TrueHD Atmos 7.1
Language                       : English
Default                        : Yes
Forced                         : No
Number of dynamic objects      : 13
Bed channel count              : 1 channel
Bed channel configuration      : LFE

Audio #2
ID                             : 3
Format                         : AC-3
Format/Info                    : Audio Coding 3
Commercial name                : Dolby Digital
Codec ID                       : A_AC3
Duration                       : 1 h 37 min
Bit rate mode                  : Constant
Bit rate                       : 640 kb/s
Channel(s)                     : 6 channels
Channel layout                 : L R C LFE Ls Rs
Sampling rate                  : 48.0 kHz
Frame rate                     : 31.250 FPS (1536 SPF)
Compression mode               : Lossy
Delay relative to video        : 2 ms
Stream size                    : 444 MiB (2%)
Title                          : AC-3 5.1
Language                       : English
Service kind                   : Complete Main
Default                        : No
Forced                         : No

Text #1
ID                             : 4
Format                         : UTF-8
Codec ID                       : S_TEXT/UTF8
Codec ID/Info                  : UTF-8 Plain Text
Duration                       : 1 h 35 min
Bit rate                       : 81 b/s
Count of elements              : 1918
Stream size                    : 56.8 KiB (0%)
Language                       : English
Default                        : No
Forced                         : No

Text #2
ID                             : 5
Format                         : UTF-8
Codec ID                       : S_TEXT/UTF8
Codec ID/Info                  : UTF-8 Plain Text
Duration                       : 1 h 35 min
Bit rate                       : 91 b/s
Count of elements              : 2146
Stream size                    : 64.0 KiB (0%)
Title                          : SDH
Language                       : English
Default                        : No
Forced                         : No

Text #3
ID                             : 6
Format                         : UTF-8
Codec ID                       : S_TEXT/UTF8
Codec ID/Info                  : UTF-8 Plain Text
Duration                       : 1 h 35 min
Bit rate                       : 79 b/s
Count of elements              : 1451
Stream size                    : 55.6 KiB (0%)
Title                          : Latin American
Language                       : Spanish
Default                        : No
Forced                         : No

Menu
00:00:00.000                   : enrologue
00:02:34.908                   : enost At Sea
00:06:49.329                   : enife With Dory
00:10:52.322                   : enosing Dory
00:13:32.107                   : enory Leads
00:15:24.177                   : en:Totally Sick
00:17:02.192                   : en:Shipping Lanes
00:19:34.635                   : en:Marine Life Institute
00:21:34.464                   : en:Under Quarantine
00:24:57.583                   : en:Getting In
00:27:07.546                   : en:No Pipes
00:30:32.376                   : en:Manifest Destiny
00:34:59.226                   : en:Operation Becky
00:37:51.189                   : en:Stroller Crossing
00:40:17.168                   : en:Stuck
00:41:05.467                   : en:Argument
00:42:29.592                   : en:Touch Pool
00:46:02.597                   : en:Confession
00:48:40.755                   : en:Tag
00:50:27.028                   : en:Childhood Home
00:55:05.514                   : enipe Travel
00:57:05.009                   : en:Meeting Marlin
01:00:40.516                   : en:Off To Cleveland
01:04:32.080                   : en:All Alone
01:10:35.902                   : en:Game Plan
01:12:27.388                   : en:Stop That Truck
01:14:09.032                   : en:Time To Go
01:18:25.663                   : en:Big Finish
01:26:48.499                   : en:Epilogue

迅雷下载资源速度为零或资源敏感被和谐时,推荐使用qBittorrent等下载软件,有条件的推荐115更好的下载软件!

下载地址

游客,如果您要查看本帖隐藏内容请回复

游客,如果您要查看本帖隐藏内容请回复




.



上一篇:敦刻尔克(内封简繁中字) / Dunkirk (2017) 4K高清版本下载
下一篇:海底总动员(内封繁体中字)/ Finding Nemo (2003) 4K高清版本下载
回复

使用道具 举报

2

主题

1388

帖子

3984

积分

4K家园VIP

Rank: 9Rank: 9Rank: 9

积分
3984
发表于 2021-12-27 15:49:00 | 显示全部楼层
我也是坐沙发的
回复 支持 反对

使用道具 举报

0

主题

7236

帖子

1万

积分

4K家园VIP

Rank: 9Rank: 9Rank: 9

积分
16568
发表于 2021-12-27 17:29:24 | 显示全部楼层
太好啦&萬分感謝版主的無私發佈分享%
回复 支持 反对

使用道具 举报

62

主题

1469

帖子

4287

积分

4K家园VIP

Rank: 9Rank: 9Rank: 9

积分
4287
发表于 2021-12-30 09:57:00 | 显示全部楼层
佩服佩服!
回复 支持 反对

使用道具 举报

13

主题

1181

帖子

3515

积分

4K家园VIP

Rank: 9Rank: 9Rank: 9

积分
3515
发表于 2022-1-2 06:06:09 来自手机 | 显示全部楼层
不错 支持一个了
回复 支持 反对

使用道具 举报

0

主题

1

帖子

6

积分

新手上路

Rank: 1

积分
6
发表于 2022-1-3 14:53:09 | 显示全部楼层
新人报到,多多关照
回复 支持 反对

使用道具 举报

0

主题

19

帖子

153

积分

新手上路

Rank: 1

积分
153
发表于 2022-1-3 21:11:45 | 显示全部楼层
看看 谢谢
回复

使用道具 举报

1

主题

1303

帖子

3731

积分

4K家园VIP

Rank: 9Rank: 9Rank: 9

积分
3731
发表于 2022-1-6 19:47:36 | 显示全部楼层
一直在看
回复 支持 反对

使用道具 举报

0

主题

1

帖子

6

积分

新手上路

Rank: 1

积分
6
发表于 2022-1-6 23:58:12 | 显示全部楼层
dddddddddddd
回复 支持 反对

使用道具 举报

0

主题

1277

帖子

3853

积分

4K家园VIP

Rank: 9Rank: 9Rank: 9

积分
3853
发表于 2022-1-7 15:35:31 | 显示全部楼层
你们要是有4K资源记得分享,别小气
回复 支持 反对

使用道具 举报

您需要登录后才可以回帖 登录 | 立即注册

本版积分规则

精彩图文
Archiver|手机版|TAG|Sitemap|新帖|专题|联系我们:邮箱: 4kjia.com@gmail.com   

4k家园   ©2019