[4K电影] 超人总动员 / The Incredibles (2004) 4K高清版本下载

[复制链接]

1323

主题

1428

帖子

1万

积分

超级版主

Rank: 8Rank: 8

积分
11131
 楼主| 发表于 2021-12-27 17:55:41 | 显示全部楼层 |阅读模式
本帖最后由 最爱4K哟 于 2021-12-29 17:13 编辑

超人总动员.jpg

◎译  名 超人总动员/超人家族/超人特工队/超人特攻队
◎片  名 The Incredibles
◎年  代 2004
◎产  地 美国
◎类  别 喜剧 / 动作 / 动画 / 冒险
◎语  言 英语,西班牙语,法语
◎上映日期 2004-11-05(美国) / 2005-01-28(中国大陆)
◎IMDb评分 8/10 from 643871 users
◎IMDb链接 https://www.imdb.com/title/tt0317705/
◎豆瓣评分 8.1/10 from 237220 users
◎豆瓣链接 https://movie.douban.com/subject/1291577/
◎片  长 115分钟
◎导  演 布拉德·伯德 Brad Bird
◎编  剧 布拉德·伯德 Brad Bird
◎主  演 格雷格·T·尼尔森 Craig T. Nelson
      霍利·亨特 Holly Hunter
      塞缪尔·杰克逊 Samuel L. Jackson
      杰森·李 Jason Lee
      泰迪·牛顿 Teddy Newton
      华莱士·肖恩 Wallace Shawn
      莎拉·沃威尔 Sarah Vowell
      蔡康永 Kevin Tsai
      徐帆 Fan Xu
      姜文 Wen Jiang
      陈佩斯 Peisi Chen
      布拉德·伯德 Brad Bird
      Spencer Fox
      徐熙娣 Dee Hsu
      宫迫博之 Hiroyuki Miyasako
      Stephen Schaffer
      Dmitry Pomirchy
      Ricardo Gray
      马克?安德鲁斯 Mark Andrews
      巴德·乐凯 Bud Luckey
      鲍勃·彼德森 Bob Peterson
      彼得·孙 Peter Sohn
      泰德·马托特 Ted Mathot


◎简  介

  鲍勃是一个超人特工,他惩恶扬善,深受街坊邻里的爱戴。“不可思议”先生就是他的光荣外号。他和另一个超人特工“弹力女超人”相爱,两人结婚后过上平静的生活。

  15年过去了,鲍勃已经像普通人一样生活,当上了保险公司的理赔员。然而他心中还是有着技痒之时。当他知道有发明家要展开攻击超人特工队、毁灭人类的计划,鲍勃终于按捺不住了。他要重出江湖,挽救人类护卫地球。但中年的超人已经大腹便便,他和敌人的斗争充满了悬念。鲍勃的妻子也跟丈夫一起投入到这场艰巨的战争中。

◎获奖情况

  第77届奥斯卡金像奖 ?(2005)
  最佳原创剧本(提名) 布拉德·伯德
  最佳动画长片 布拉德·伯德
  最佳混音(提名) 兰迪·汤姆?/?道克·凯恩?/?加里·利佐
  最佳音效剪辑 兰迪·汤姆?/?迈克尔·席维斯

  第62届金球奖 ?(2005)
  电影类最佳音乐/喜剧片(提名)

  第32届动画安妮奖 ?(2005)
  最佳动画长片
  最佳导演 布拉德·伯德
  最佳编剧 布拉德·伯德
  最佳配音 布拉德·伯德
  最佳配音(提名) 塞缪尔·杰克逊
  最佳配乐 迈克·吉亚奇诺
  最佳配乐(提名) 迈克·吉亚奇诺
  最佳分镜 KevinO'Brien
  最佳分镜(提名) 泰德·马托特
  最佳艺术指导 卢·罗曼诺
  最佳动画角色 安格斯·麦克莱恩
  最佳动画角色(提名) 约翰·凯世?/?彼得·孙?/?KurehaYokoo
  最佳角色设计 托尼·弗希勒
  最佳角色设计(提名) 泰迪·牛顿
  最佳动画效果 MartinNguyen

  第14届MTV电影奖 ?(2005)
  MTV电影奖年度电影(提名)
  MTV电影奖最佳银幕组合(提名) 格雷格·T·尼尔森?/?SpencerFox?/?霍利·亨特?/?莎拉·沃威尔

  第5届美国电影学会奖 ?(2004)
  年度佳片

General
Complete name                  : H:\4K@电影\The.Incredibles.2004.2160p.WEB-DL.TrueHD.Atmos.7.1.DV.HEVC-NOSiViD.mkv
Format                         : Matroska
Format version                 : Version 4
File size                      : 23.1 GiB
Duration                       : 1 h 55 min
Overall bit rate mode          : Variable
Overall bit rate               : 28.6 Mb/s
Movie name                     : The Incredibles (2004)
Encoded date                   : UTC 2021-12-05 09:59:05
Writing application            : mkvmerge v63.0.0 ('Everything') 64-bit
Writing library                : libebml v1.4.2 + libmatroska v1.6.4
IMDB                           : tt0317705
TMDB                           : movie/9806

Video
ID                             : 1
Format                         : HEVC
Format/Info                    : High Efficiency Video Coding
Format profile                 : Main 10@L5@High
HDR format                     : Dolby Vision, Version 1.0, dvhe.05.06, BL+RPU
Codec ID                       : V_MPEGH/ISO/HEVC
Duration                       : 1 h 55 min
Bit rate                       : 20.6 Mb/s
Width                          : 3 832 pixels
Height                         : 1 600 pixels
Display aspect ratio           : 2.40:1
Frame rate mode                : Constant
Frame rate                     : 23.976 (24000/1001) FPS
Original frame rate            : 23.976 (23976/1000) FPS
Color space                    : YUV
Chroma subsampling             : 4:2:0
Bit depth                      : 10 bits
Bits/(Pixel*Frame)             : 0.140
Stream size                    : 16.6 GiB (72%)
Default                        : Yes
Forced                         : No

Audio #1
ID                             : 2
Format                         : MLP FBA 16-ch
Format/Info                    : Meridian Lossless Packing FBA with 16-channel presentation
Commercial name                : Dolby TrueHD with Dolby Atmos
Codec ID                       : A_TRUEHD
Duration                       : 1 h 55 min
Bit rate mode                  : Variable
Bit rate                       : 7 354 kb/s
Maximum bit rate               : 7 071 kb/s
Channel(s)                     : 8 channels
Channel layout                 : L R C LFE Ls Rs Lb Rb
Sampling rate                  : 48.0 kHz
Frame rate                     : 1 200.000 FPS (40 SPF)
Compression mode               : Lossless
Delay relative to video        : 156 ms
Stream size                    : 5.92 GiB (26%)
Title                          : TrueHD Atmos 7.1
Language                       : English
Default                        : Yes
Forced                         : No
Number of dynamic objects      : 13
Bed channel count              : 1 channel
Bed channel configuration      : LFE

Audio #2
ID                             : 3
Format                         : AC-3
Format/Info                    : Audio Coding 3
Commercial name                : Dolby Digital
Format settings                : Dolby Surround EX
Codec ID                       : A_AC3
Duration                       : 1 h 55 min
Bit rate mode                  : Constant
Bit rate                       : 640 kb/s
Channel(s)                     : 6 channels
Channel layout                 : L R C LFE Ls Rs
Sampling rate                  : 48.0 kHz
Frame rate                     : 31.250 FPS (1536 SPF)
Compression mode               : Lossy
Delay relative to video        : 156 ms
Stream size                    : 528 MiB (2%)
Title                          : AC3-EX 5.1
Language                       : English
Service kind                   : Complete Main
Default                        : No
Forced                         : No

Text #1
ID                             : 4
Format                         : UTF-8
Codec ID                       : S_TEXT/UTF8
Codec ID/Info                  : UTF-8 Plain Text
Duration                       : 1 h 46 min
Bit rate                       : 60 b/s
Count of elements              : 1314
Stream size                    : 47.2 KiB (0%)
Language                       : English
Default                        : No
Forced                         : No

Text #2
ID                             : 5
Format                         : UTF-8
Codec ID                       : S_TEXT/UTF8
Codec ID/Info                  : UTF-8 Plain Text
Duration                       : 1 h 47 min
Bit rate                       : 65 b/s
Count of elements              : 1422
Stream size                    : 51.0 KiB (0%)
Title                          : SDH
Language                       : English
Default                        : No
Forced                         : No

Text #3
ID                             : 6
Format                         : UTF-8
Codec ID                       : S_TEXT/UTF8
Codec ID/Info                  : UTF-8 Plain Text
Duration                       : 1 h 47 min
Bit rate                       : 61 b/s
Count of elements              : 1211
Stream size                    : 48.1 KiB (0%)
Title                          : Latin American
Language                       : Spanish
Default                        : No
Forced                         : No

Menu
00:00:00.156                   : en:Golden Age
00:09:15.252                   : en:Weddings & Lawsuits
00:11:33.723                   : en:15 Years and 50 Pounds Later
00:13:32.050                   : en:After School
00:17:09.475                   : en:Family Dinner
00:20:45.650                   : en:2 Ex-Supers
00:26:54.518                   : en:A Super Defeated
00:30:42.955                   : en:Help Wanted
00:34:55.582                   : en:Nomanisan
00:41:27.891                   : en:New and Improved
00:46:02.665                   : en:Helen Suspects
00:48:55.463                   : en:Helen & E
00:50:03.114                   : en:An Important Meeting
00:54:02.770                   : en:E's Lab
00:57:10.332                   : en:Secrets Revealed
01:00:36.789                   : en:Suiting Up
01:05:05.849                   : en:Missile Lock
01:10:54.531                   : en:Out to Sea
01:12:58.905                   : en:Good Guys/Bad Girls
01:16:28.281                   : en:Elastigirl Returns
01:19:19.994                   : en:Caves & Rockets
01:21:14.900                   : enost & Found
01:24:00.524                   : en:100 Mile Dash
01:27:06.377                   : en:Reunited
01:30:30.831                   : en:Bob's Confession
01:32:48.009                   : en:Frozone & Honey
01:33:34.014                   : en:Omnidroid Attacks
01:34:31.363                   : en:Road Trip
01:37:04.140                   : en:The Incredibles vs. the Omnidroid
01:41:58.726                   : enast vs. Future
01:45:40.781                   : en:Happy Endings
01:47:33.978                   : en:End Credits

迅雷下载资源速度为零或资源敏感被和谐时,推荐使用qBittorrent等下载软件,有条件的推荐115更好的下载软件!

下载地址

游客,如果您要查看本帖隐藏内容请回复

游客,如果您要查看本帖隐藏内容请回复





.

上一篇:心灵奇旅 / Soul (2020) 4K高清版本下载
下一篇:玩具总动员 (内封简繁中字)/ Toy Story (1995) 4K高清版本下载
回复

使用道具 举报

1

主题

1389

帖子

4009

积分

4K家园VIP

Rank: 9Rank: 9Rank: 9

积分
4009
发表于 2021-12-27 17:55:46 来自手机 | 显示全部楼层
高手啊
回复 支持 反对

使用道具 举报

58

主题

1531

帖子

4403

积分

4K家园VIP

Rank: 9Rank: 9Rank: 9

积分
4403
发表于 2021-12-27 18:43:34 | 显示全部楼层
路过
回复 支持 反对

使用道具 举报

5

主题

1345

帖子

3877

积分

4K家园VIP

Rank: 9Rank: 9Rank: 9

积分
3877
发表于 2021-12-27 21:23:24 | 显示全部楼层
支持你哈...................................
回复 支持 反对

使用道具 举报

0

主题

1277

帖子

3853

积分

4K家园VIP

Rank: 9Rank: 9Rank: 9

积分
3853
发表于 2021-12-28 05:38:02 | 显示全部楼层
看起来不错
回复 支持 反对

使用道具 举报

0

主题

1346

帖子

3836

积分

中级会员

Rank: 4

积分
3836
发表于 2021-12-28 12:44:06 来自手机 | 显示全部楼层
支持楼主,用户楼主,楼主英明呀!!!
回复 支持 反对

使用道具 举报

您需要登录后才可以回帖 登录 | 立即注册

本版积分规则

精彩图文
Archiver|手机版|TAG|Sitemap|新帖|专题|联系我们:邮箱: 4kjia.com@gmail.com   

4k家园   ©2019