[4K电影] 赛车总动员2 / Cars2 (2011) 4K高清版本下载

[复制链接]

1323

主题

1428

帖子

1万

积分

超级版主

Rank: 8Rank: 8

积分
11131
 楼主| 发表于 2021-12-29 10:22:26 | 显示全部楼层 |阅读模式
赛车总动员2_副本.jpg

◎译  名 赛车总动员2 / 3D反斗车王2(港) / Cars2:世界大赛(台) / 小汽车的故事2 / 汽车总动员2 / 飞车正传2
◎片  名 Cars 2
◎年  代 2011
◎产  地 美国
◎类  别 喜剧 / 动画 / 冒险
◎语  言 英语 / 日语 / 意大利语 / 法语
◎上映日期 2011-06-24(美国) / 2011-08-24(中国大陆)
◎IMDb评分 6.2/10 from 142508 users
◎IMDb链接 http://www.imdb.com/title/tt1216475
◎豆瓣评分 7.6/10 from 64760 users
◎豆瓣链接 https://movie.douban.com/subject/3036478/
◎片  长 106分钟
◎导  演 约翰·拉塞特 John Lasseter / 布拉德·刘易斯 Brad Lewis
◎编  剧 约翰·拉塞特 John Lasseter / 布拉德·刘易斯 Brad Lewis / 丹·福格尔曼 Dan Fogelman / 本·奎因 Ben Queen
◎主  演 欧文·威尔逊 Owen Wilson
      王牌接线员拉里 Larry The Cable Guy
      迈克尔·凯恩 Michael Caine
      艾米莉·莫迪默 Emily Mortimer
      艾迪·伊扎德 Eddie Izzard
      约翰·特托罗 John Turturro
      布伦特·马斯伯格 Brent Musburger
      乔·曼特纳 Joe Mantegna
      托马斯·克莱舒曼 Thomas Kretschmann
      彼得·雅各布森 Peter Jacobson
      邦尼·亨特 Bonnie Hunt
      达雷尔·沃尔特里普 Darrell Waltrip
      弗兰科·尼罗 Franco Nero
      大卫·赫伯斯 David Hobbs
      托尼·夏尔赫布 Tony Shalhoub
      杰夫·格尔林 Jeff Garlin
      詹森·艾萨克 Jason Isaacs
      布鲁斯·坎贝尔 Bruce Campbell
      詹妮弗·路易斯 Jenifer Lewis
      斯坦利·汤森德 Stanley Townsend
      维利贝·托皮奇 Velibor Topic
      锡格·汉森 Sig Hansen
      盖多·克隆尼 Guido Quaroni
      瓦妮莎·雷德格瑞夫 Vanessa Redgrave
      布拉德·刘易斯 Brad Lewis
      切奇·马林 Cheech Marin
      保罗·杜利 Paul Dooley
      伊迪·迈克莱尔 Edie McClurg
      理查德·坎德 Richard Kind
      凯瑟琳·海蒙德 Katherine Helmond
      迈克尔·沃利斯 Michael Wallis



◎简  介

  开发出新能源的迈尔斯伯爵召开世界杯赛车大奖赛,各路好手纷纷云集,独独缺了活塞杯霸主闪电麦昆(黄磊 配音)。原来他刚好回到温泉镇,与好哥们板牙(范伟 配音)、女友莎莉享受快乐的假期。由于意大利方程式赛车法拉斯·高的挑衅,当然也有吃醋的原因,麦昆最终同意参加世界杯,并带着板 牙等好友一同周游世界。在日本站比赛的前一天,板牙偶然结识了英国特工迈克飞弹和霍莉(姚晨 配音),他们正在追查一支犯罪团伙的新动向。板牙阴差阳错被霍莉当作美国来的接头特工,由此卷入了麻烦之中。在次日的比赛中,麦昆与法拉斯·高竞争激烈,与此同时不断有选手意外爆缸,板牙则撞见迈克和神秘组织火并的场面。
  因这一连串意外,麦昆和板牙的友情受到动摇,而这一切的幕后老板也渐渐露出真实面目……

◎获奖情况

  第69届金球奖(2012)
  电影类 最佳动画长片(提名)

  第39届动画安妮奖(2012)
  最佳动画长片(提名)
  最佳剪辑(提名) Stephen Schaffer
  最佳分镜(提名)
  最佳艺术指导(提名) 哈雷·杰斯普
  最佳角色设计(提名) Jay Shuster
  最佳动画效果(提名) Eric Froemling / Jon Reisch

General
Complete name                  : H:\4K@电影\Cars.2.2011.2160p.WEB-DL.DDP5.1.Atmos.DV.MP4.x265-DVSUX.mp4
Format                         : MPEG-4
Format profile                 : Base Media
Codec ID                       : isom (isom)
File size                      : 16.9 GiB
Duration                       : 1 h 46 min
Overall bit rate mode          : Variable
Overall bit rate               : 22.8 Mb/s

Video
ID                             : 1
Format                         : HEVC
Format/Info                    : High Efficiency Video Coding
Format profile                 : Main 10@L5@High
HDR format                     : Dolby Vision, Version 1.0, dvhe.05.06, BL+RPU
Codec ID                       : dvhe
Codec ID/Info                  : High Efficiency Video Coding with Dolby Vision
Duration                       : 1 h 46 min
Bit rate                       : 22.0 Mb/s
Width                          : 3 840 pixels
Height                         : 1 608 pixels
Original height                : 1 606 pixels
Display aspect ratio           : 2.40:1
Original display aspect ratio  : 2.40:1
Frame rate mode                : Constant
Frame rate                     : 23.976 (24000/1001) FPS
Color space                    : YUV
Chroma subsampling             : 4:2:0
Bit depth                      : 10 bits
Bits/(Pixel*Frame)             : 0.149
Stream size                    : 16.3 GiB (97%)
Default                        : Yes
Alternate group                : 1
Codec configuration box        : hvcC+dvcC

Audio
ID                             : 2
Format                         : E-AC-3 JOC
Format/Info                    : Enhanced AC-3 with Joint Object Coding
Commercial name                : Dolby Digital Plus with Dolby Atmos
Codec ID                       : ec-3
Duration                       : 1 h 46 min
Bit rate mode                  : Constant
Bit rate                       : 768 kb/s
Maximum bit rate               : 811 kb/s
Channel(s)                     : 6 channels
Channel layout                 : L R C LFE Ls Rs
Sampling rate                  : 48.0 kHz
Frame rate                     : 31.250 FPS (1536 SPF)
Compression mode               : Lossy
Stream size                    : 584 MiB (3%)
Title                          : English (US)
Language                       : English
Service kind                   : Complete Main
Complexity index               : Not present / 16
Number of dynamic objects      : 15
Bed channel count              : 1 channel
Bed channel configuration      : LFE

Text #1
ID                             : 3
Format                         : Timed Text
Codec ID                       : tx3g
Duration                       : 1 h 38 min
Bit rate mode                  : Variable
Bit rate                       : 100 b/s
Stream size                    : 71.9 KiB (0%)
Title                          : English
Language                       : English
Forced                         : No

Text #2
ID                             : 4
Format                         : Timed Text
Codec ID                       : tx3g
Duration                       : 1 h 38 min
Bit rate mode                  : Variable
Bit rate                       : 105 b/s
Stream size                    : 75.6 KiB (0%)
Title                          : SDH
Language                       : English
Forced                         : No

Text #3
ID                             : 5
Format                         : Timed Text
Codec ID                       : tx3g
Duration                       : 1 h 38 min
Bit rate mode                  : Variable
Bit rate                       : 69 b/s
Stream size                    : 49.8 KiB (0%)
Title                          : Danish
Language                       : Danish
Forced                         : No

Text #4
ID                             : 6
Format                         : Timed Text
Codec ID                       : tx3g
Duration                       : 1 h 38 min
Bit rate mode                  : Variable
Bit rate                       : 89 b/s
Stream size                    : 64.4 KiB (0%)
Title                          : German
Language                       : German
Forced                         : No

Text #5
ID                             : 7
Format                         : Timed Text
Codec ID                       : tx3g
Duration                       : 1 h 38 min
Bit rate mode                  : Variable
Bit rate                       : 142 b/s
Stream size                    : 103 KiB (0%)
Title                          : Modern Greek (1453-)
Language                       : Greek
Forced                         : No

Text #6
ID                             : 8
Format                         : Timed Text
Codec ID                       : tx3g
Duration                       : 1 h 38 min
Bit rate mode                  : Variable
Bit rate                       : 81 b/s
Stream size                    : 58.0 KiB (0%)
Title                          : Spanish
Language                       : Spanish
Forced                         : No

Text #7
ID                             : 9
Format                         : Timed Text
Codec ID                       : tx3g
Duration                       : 1 h 38 min
Bit rate mode                  : Variable
Bit rate                       : 83 b/s
Stream size                    : 59.8 KiB (0%)
Title                          : Finnish
Language                       : Finnish
Forced                         : No

Text #8
ID                             : 10
Format                         : Timed Text
Codec ID                       : tx3g
Duration                       : 1 h 38 min
Bit rate mode                  : Variable
Bit rate                       : 90 b/s
Stream size                    : 65.1 KiB (0%)
Title                          : French
Language                       : French
Forced                         : No

Text #9
ID                             : 11
Format                         : Timed Text
Codec ID                       : tx3g
Duration                       : 1 h 38 min
Bit rate mode                  : Variable
Bit rate                       : 86 b/s
Stream size                    : 62.0 KiB (0%)
Title                          : Italian
Language                       : Italian
Forced                         : No

Text #10
ID                             : 12
Format                         : Timed Text
Codec ID                       : tx3g
Duration                       : 1 h 38 min
Bit rate mode                  : Variable
Bit rate                       : 71 b/s
Stream size                    : 51.4 KiB (0%)
Title                          : Dutch
Language                       : Dutch
Forced                         : No

Text #11
ID                             : 13
Format                         : Timed Text
Codec ID                       : tx3g
Duration                       : 1 h 38 min
Bit rate mode                  : Variable
Bit rate                       : 83 b/s
Stream size                    : 60.0 KiB (0%)
Title                          : Norwegian
Language                       : Norwegian
Forced                         : No

Text #12
ID                             : 14
Format                         : Timed Text
Codec ID                       : tx3g
Duration                       : 1 h 38 min
Bit rate mode                  : Variable
Bit rate                       : 89 b/s
Stream size                    : 64.0 KiB (0%)
Title                          : Portuguese
Language                       : Portuguese
Forced                         : No

Text #13
ID                             : 15
Format                         : Timed Text
Codec ID                       : tx3g
Duration                       : 1 h 38 min
Bit rate mode                  : Variable
Bit rate                       : 75 b/s
Stream size                    : 54.1 KiB (0%)
Title                          : Swedish
Language                       : Swedish
Forced                         : No


迅雷下载资源速度为零或资源敏感被和谐时,推荐使用qBittorrent等下载软件,有条件的推荐115更好的下载软件!

下载地址


游客,如果您要查看本帖隐藏内容请回复





.



上一篇:赛车总动员 / Cars (2006) 4K高清版本下载
下一篇:赛车总动员3:极速挑战 / Cars3 (2017) 4K高清版本下载
回复

使用道具 举报

5

主题

1600

帖子

4420

积分

中级会员

Rank: 4

积分
4420
发表于 2021-12-29 10:22:33 来自手机 | 显示全部楼层
1v1飘过
回复 支持 反对

使用道具 举报

0

主题

7237

帖子

1万

积分

4K家园VIP

Rank: 9Rank: 9Rank: 9

积分
16569
发表于 2021-12-29 12:42:47 | 显示全部楼层
太好啦&萬分感謝版主的無私發佈分享%
回复 支持 反对

使用道具 举报

2

主题

1710

帖子

4666

积分

4K家园VIP

Rank: 9Rank: 9Rank: 9

积分
4666
发表于 2021-12-30 10:18:11 | 显示全部楼层
4K电影下个试试
回复 支持 反对

使用道具 举报

37

主题

1498

帖子

4272

积分

4K家园VIP

Rank: 9Rank: 9Rank: 9

积分
4272
发表于 2021-12-31 21:18:01 来自手机 | 显示全部楼层
嘘,低调。
回复 支持 反对

使用道具 举报

2

主题

1643

帖子

4517

积分

4K家园VIP

Rank: 9Rank: 9Rank: 9

积分
4517
发表于 2022-1-2 16:20:33 | 显示全部楼层
没明白
回复 支持 反对

使用道具 举报

1

主题

1111

帖子

3351

积分

4K家园VIP

Rank: 9Rank: 9Rank: 9

积分
3351
发表于 2022-1-3 10:56:15 来自手机 | 显示全部楼层
没人回帖。。。我来个吧
回复 支持 反对

使用道具 举报

您需要登录后才可以回帖 登录 | 立即注册

本版积分规则

精彩图文
Archiver|手机版|TAG|Sitemap|新帖|专题|联系我们:邮箱: 4kjia.com@gmail.com   

4k家园   ©2019