[4K电影] 赛车总动员3:极速挑战 / Cars3 (2017) 4K高清版本下载

[复制链接]

1339

主题

1444

帖子

1万

积分

超级版主

Rank: 8Rank: 8

积分
11232
 楼主| 发表于 2021-12-29 10:27:06 | 显示全部楼层 |阅读模式
赛车总动员3:极速挑战_副本.jpg

◎译  名 赛车总动员3:极速挑战/小汽车的故事3/飞车正传3/反斗车王3(港)/汽车总动员3/赛车总动员3/Cars 3:闪电再起(台)
◎片  名 Cars 3
◎年  代 2017
◎产  地 美国
◎类  别 喜剧/动画/冒险
◎语  言 英语
◎上映日期 2017-06-16(美国)/2017-08-25(中国大陆)
◎IMDb评分  6.7/10 from 72,040 users
◎IMDb链接  https://www.imdb.com/title/tt3606752/
◎豆瓣评分 7.0/10 from 38448 users
◎豆瓣链接 https://douban.com/subject/25849480/
◎片  长 102分钟
◎导  演 布莱恩·菲 Brian Fee
◎编  剧 布莱恩·菲 Brian Fee / 本·奎因 Ben Queen / 伊尔·波戴尔 Eyal Podell / 乔纳森·E·斯图尔特 Jonathon E. Stewart / 基尔·默里 Kiel Murray / 鲍勃·彼德森 Bob Peterson / 迈克·里奇 Mike Rich / 丹尼尔·吉尔森 Daniel Gerson
◎主  演 欧文·威尔逊 Owen Wilson
       克里斯黛拉·阿朗索 Cristela Alonzo
       克里斯·库珀 Chris Cooper
       内森·菲利安 Nathan Fillion
       王牌接线员拉里 Larry The Cable Guy
       艾米·汉莫 Armie Hammer
       雷·马格利奥齐 Ray Magliozzi
       托尼·夏尔赫布 Tony Shalhoub
       邦尼·亨特 Bonnie Hunt
       丽亚·德拉利亚 Lea DeLaria
       凯丽·华盛顿 Kerry Washington
       鲍勃·科斯塔斯 Bob Costas
       玛格·马丁戴尔 Margo Martindale
       达雷尔·沃尔特里普 Darrell Waltrip
       小伊塞亚·维特洛克 Isiah Whitlock Jr.
       保罗·杜利 Paul Dooley
       凯瑟琳·海蒙德 Katherine Helmond
       切奇·马林 Cheech Marin
       黄磊 Lei Huang


◎简  介

  征战沙场多年,闪电麦昆(欧文·威尔逊 Owen Wilson 配音)早已成为经验丰富的老将。对于现在的他来说,比赛更像与老友们的聚会,大家共同享受狂奔带来的乐趣。然而这和谐的一幕很快被残酷的现实打破,以风暴杰克逊(艾米·汉莫 Armie Hammer 配音)为代表的次世代高科技赛车相继步入赛场,他们凭借更加优良的性能与高科技的组装改造将老一代赛车一一淘汰,甚至包括王者麦昆。四个月后,伤愈的麦昆决定复出,而他也被合作多年的赞助商转到了斯特林(内森·菲利安 Nathan Fillion 配音)麾下。接受从内到外的全新改造后,麦昆在教练科鲁兹·拉米雷斯(克里斯黛拉·阿朗索 Cristela Alonzo 配音)的监督下展开训练。然而他面临着一项严峻的考验,如果他不能在接下来的比赛中取得胜利,那么他必须从此退休。

  希望渺茫,不服输的麦昆能否重新取得胜利的荣光……

◎获奖情况

  第45届动画安妮奖  (2018)
  最佳动画长片(提名)
  最佳动画效果(提名)

  第22届美国艺术指导工会奖  (2018)
  电影奖最佳动画电影艺术指导(提名)

  第16届美国视觉效果协会奖  (2018)
  最佳动画电影视觉效果(提名)
  最佳动画电影CG背景(提名)
  最佳动画电影模拟动画效果(提名)

  第54届美国声音效果协会奖  (2018)
  动画电影最佳音效(提名)

  第22届金卫星奖  (2018)
  电影部门最佳动画片(提名)
General
Complete name                  : H:\4K@电影\Cars.3.2017.2160p.WEB-DL.DDP5.1.Atmos.DV.MP4.x265-DVSUX.mp4
Format                         : MPEG-4
Format profile                 : Base Media
Codec ID                       : isom (isom)
File size                      : 17.6 GiB
Duration                       : 1 h 42 min
Overall bit rate mode          : Variable
Overall bit rate               : 24.6 Mb/s
IsTruncated                    : Yes

Video
ID                             : 1
Format                         : HEVC
Format/Info                    : High Efficiency Video Coding
Format profile                 : Main 10@L5@High
HDR format                     : Dolby Vision, Version 1.0, dvhe.05.06, BL+RPU
Codec ID                       : dvhe
Codec ID/Info                  : High Efficiency Video Coding with Dolby Vision
Duration                       : 1 h 42 min
Bit rate                       : 24.0 Mb/s
Width                          : 3 840 pixels
Height                         : 1 608 pixels
Display aspect ratio           : 2.40:1
Frame rate mode                : Constant
Frame rate                     : 23.976 (24000/1001) FPS
Color space                    : YUV
Chroma subsampling             : 4:2:0
Bit depth                      : 10 bits
Bits/(Pixel*Frame)             : 0.162
Stream size                    : 17.1 GiB (97%)
Default                        : Yes
Alternate group                : 1
Codec configuration box        : hvcC+dvcC

Audio
ID                             : 2
Format                         : E-AC-3 JOC
Format/Info                    : Enhanced AC-3 with Joint Object Coding
Commercial name                : Dolby Digital Plus with Dolby Atmos
Codec ID                       : ec-3
Duration                       : 1 h 42 min
Bit rate mode                  : Constant
Bit rate                       : 768 kb/s
Maximum bit rate               : 811 kb/s
Channel(s)                     : 6 channels
Channel layout                 : L R C LFE Ls Rs
Sampling rate                  : 48.0 kHz
Frame rate                     : 31.250 FPS (1536 SPF)
Compression mode               : Lossy
Stream size                    : 562 MiB (3%)
Title                          : English (US)
Language                       : English
Service kind                   : Complete Main
Complexity index               : Not present / 16
Number of dynamic objects      : 15
Bed channel count              : 1 channel
Bed channel configuration      : LFE

Text #1
ID                             : 3
Format                         : Timed Text
Codec ID                       : tx3g
Duration                       : 1 h 41 min
Bit rate mode                  : Variable
Bit rate                       : 97 b/s
Stream size                    : 72.0 KiB (0%)
Title                          : English
Language                       : English
Forced                         : No

Text #2
ID                             : 4
Format                         : Timed Text
Codec ID                       : tx3g
Duration                       : 1 h 41 min
Bit rate mode                  : Variable
Bit rate                       : 111 b/s
Stream size                    : 82.8 KiB (0%)
Title                          : SDH
Language                       : English
Forced                         : No

Text #3
ID                             : 5
Format                         : Timed Text
Codec ID                       : tx3g
Duration                       : 1 h 41 min
Bit rate mode                  : Variable
Bit rate                       : 85 b/s
Stream size                    : 63.1 KiB (0%)
Title                          : Spanish
Language                       : Spanish
Forced                         : No



迅雷下载资源速度为零或资源敏感被和谐时,推荐使用qBittorrent等下载软件,有条件的推荐115更好的下载软件!

下载地址


游客,如果您要查看本帖隐藏内容请回复



.



上一篇:赛车总动员2 / Cars2 (2011) 4K高清版本下载
下一篇:加勒比海盗(内封中字) (2003) 4K高清版本下载
回复

使用道具 举报

47

主题

1435

帖子

4097

积分

4K家园VIP

Rank: 9Rank: 9Rank: 9

积分
4097
发表于 2021-12-29 10:27:11 | 显示全部楼层
求沙发
回复 支持 反对

使用道具 举报

0

主题

7280

帖子

1万

积分

4K家园VIP

Rank: 9Rank: 9Rank: 9

积分
16651
发表于 2021-12-29 12:43:00 | 显示全部楼层
太好啦&萬分感謝版主的無私發佈分享%
回复 支持 反对

使用道具 举报

0

主题

1

帖子

10

积分

新手上路

Rank: 1

积分
10
发表于 2021-12-29 16:09:47 | 显示全部楼层
感谢版主分享,超级喜欢这个电影
回复 支持 反对

使用道具 举报

1

主题

1308

帖子

3944

积分

4K家园VIP

Rank: 9Rank: 9Rank: 9

积分
3944
发表于 2022-1-3 23:38:59 | 显示全部楼层
我只是路过,不发表意见
回复 支持 反对

使用道具 举报

0

主题

1

帖子

10

积分

新手上路

Rank: 1

积分
10
发表于 2022-1-4 14:45:54 | 显示全部楼层
感谢版主分享
回复 支持 反对

使用道具 举报

2

主题

1374

帖子

4142

积分

4K家园VIP

Rank: 9Rank: 9Rank: 9

积分
4142
发表于 2022-1-8 19:47:15 来自手机 | 显示全部楼层
嘘,低调。
回复 支持 反对

使用道具 举报

3

主题

1174

帖子

3534

积分

4K家园VIP

Rank: 9Rank: 9Rank: 9

积分
3534
发表于 2022-1-9 19:52:40 | 显示全部楼层
谢谢楼主
回复 支持 反对

使用道具 举报

0

主题

52

帖子

189

积分

新手上路

Rank: 1

积分
189
发表于 2022-1-9 21:11:35 | 显示全部楼层
感谢楼主分享
回复 支持 反对

使用道具 举报

0

主题

1612

帖子

4466

积分

4K家园VIP

Rank: 9Rank: 9Rank: 9

积分
4466
发表于 2022-1-10 13:27:50 | 显示全部楼层
围观 围观 沙发在哪里!!!
回复 支持 反对

使用道具 举报

您需要登录后才可以回帖 登录 | 立即注册

本版积分规则

精彩图文
Archiver|手机版|TAG|Sitemap|新帖|专题|联系我们:邮箱: 4kjia.com@gmail.com   

4k家园   ©2019