[4K电影] 清道夫:布局 / Ray Donovan (2022) 4K高清版本下载

[复制链接]

2163

主题

2306

帖子

1万

积分

超级版主

Rank: 8Rank: 8

积分
16861
 楼主| 发表于 2022-1-14 21:50:13 | 显示全部楼层 |阅读模式
QQ图片20220114214110_副本.png

◎译  名 清道夫:布局/Ray Donovan: The Movie/清道夫电影版
◎片  名 Ray Donovan
◎年  代 2022
◎产  地 美国
◎类  别 剧情
◎语  言 英语
◎上映日期 2022-01-14(美国)
◎IMDb评分  7.7/10 from 16 users
◎IMDb链接  https://www.imdb.com/title/tt14124268/
◎豆瓣评分 0/10 from 0 users
◎豆瓣链接 https://movie.douban.com/subject/35376733/
◎导  演 戴维·霍兰德 David Hollander
◎编  剧 戴维·霍兰德 David Hollander / 列维·施瑞博尔 Liev Schreiber
◎主  演 列维·施瑞博尔 Liev Schreiber
      凯瑞斯·多西 Kerris Dorsey
      强·沃特 Jon Voight
      凯瑞·康顿 Kerry Condon
      埃迪·马森 Eddie Marsan
      达什·米霍克 Dash Mihok
      大卫·帕特里克·凯利 David Patrick Kelly
      阿曼达·米夏卡 AJ Michalka
      雪莉·李·拉尔夫 Sheryl Lee Ralph
      普奇·豪尔 Pooch Hall
      克里斯·彼得罗夫斯基 Chris Petrovski
      克里斯托弗·格雷 Christopher Gray
      泰·亚历山大 Tye Alexander
      米克·奥罗克 Mick O'Rourke
      帕特里克·克莱因 Patrick Klein
      Daniel Hirsh Daniel Hirsh


◎简  介

  #好莱坞影讯# 列维·施瑞博尔主演的Showtime剧集《清道夫》将推出电影版!施瑞博尔将回归主演,并将与剧集运作人戴维·霍兰德共同操刀剧本,霍兰德担任该片导演。强·沃特、凯瑞斯·多西也将回归出演。该片故事将承接《清道夫》第七季,米奇继续出手,雷决心在他造成更多屠杀之前找到他并阻止他。该片计划于今年晚些时候在纽约开拍。
Video
ID : 1
Format : HEVC
Format/Info : High Efficiency Video Coding
Format profile : Main@L5@Main
Codec ID : V_MPEGH/ISO/HEVC
Duration : 1 h 39 min
Bit rate : 14.6 Mb/s
Width : 3 840 pixels
Height : 2 160 pixels
Display aspect ratio : 16:9
Frame rate mode : Constant
Frame rate : 23.976 (24000/1001/189150) FPS
Color space : YUV
Chroma subsampling : 4:2:0
Bit depth : 8 bits
Bits/(Pixel*Frame) : 0.073
Stream size : 10.2 GiB (96%)
Writing library : x265 3.4hy:[Linux][GCC 7.5.0][64 bit] 8bit
Encoding settings : cpuid=1111039 / frame-threads=6 / no-wpp / no-pmode / no-pme / no-psnr / no-ssim / log-level=2 / input-csp=1 / input-res=3840x2160 / interlace=0 / total-frames=0 / level-idc=0 / high-tier=1 / uhd-bd=0 / ref=4 / no-allow-non-conformance / repeat-headers / annexb / aud / hrd / info / hash=0 / no-temporal-layers / no-open-gop / min-keyint=48 / keyint=48 / gop-lookahead=0 / bframes=4 / b-adapt=2 / b-pyramid / bframe-bias=0 / rc-lookahead=48 / lookahead-slices=4 / scenecut=0 / hist-scenecut=0 / radl=0 / no-splice / no-intra-refresh / ctu=64 / min-cu-size=8 / rect / no-amp / max-tu-size=32 / tu-inter-depth=1 / tu-intra-depth=1 / limit-tu=0 / rdoq-level=2 / dynamic-rd=0.00 / no-ssim-rd / signhide / no-tskip / nr-intra=100 / nr-inter=400 / no-constrained-intra / strong-intra-smoothing / max-merge=3 / limit-refs=3 / limit-modes / me=3 / subme=3 / merange=57 / temporal-mvp / no-frame-dup / no-hme / weightp / no-weightb / no-analyze-src-pics / deblock=0:0 / sao / no-sao-non-deblock / rd=4 / selective-sao=4 / no-early-skip / rskip / no-fast-intra / no-tskip-fast / no-cu-lossless / no-b-intra / no-splitrd-skip / rdpenalty=0 / psy-rd=0.00 / psy-rdoq=1.00 / no-rd-refine / no-lossless / cbqpoffs=0 / crqpoffs=0 / rc=abr / bitrate=15000 / qcomp=0.60 / qpstep=4 / stats-write=0 / stats-read=2 / cplxblur=20.0 / qblur=0.5 / vbv-maxrate=18000 / vbv-bufsize=12000 / vbv-init=0.6 / vbv-end=0.6 / vbv-end-fr-adj=0.0 / ipratio=1.40 / pbratio=1.30 / aq-mode=2 / aq-strength=1.00 / cutree / zone-count=0 / no-strict-cbr / qg-size=32 / no-rc-grain / qpmax=69 / qpmin=0 / no-const-vbv / sar=1 / overscan=0 / videoformat=5 / range=0 / colorprim=1 / transfer=1 / colormatrix=1 / chromaloc=0 / display-window=0 / cll=0,0 / min-luma=0 / max-luma=255 / log2-max-poc-lsb=8 / vui-timing-info / vui-hrd-info / no-concatenation / slices=1 / no-opt-qp-pps / no-opt-ref-list-length-pps / no-multi-pass-opt-rps / scenecut-bias=0.05 / hist-threshold=0.01 / no-opt-cu-delta-qp / no-aq-motion / no-hdr10 / no-hdr10-opt / no-dhdr10-opt / no-idr-recovery-sei / analysis-reuse-level=0 / analysis-save-reuse-level=0 / analysis-load-reuse-level=0 / scale-factor=0 / refine-intra=0 / refine-inter=0 / refine-mv=1 / refine-ctu-distortion=0 / no-limit-sao / ctu-info=0 / no-lowpass-dct / refine-analysis-type=0 / copy-pic=1 / max-ausize-factor=1.0 / no-dynamic-refine / no-single-sei / no-hevc-aq / no-svt / no-field / qp-adaptation-range=1.00 / no-scenecut-aware-qpconformance-window-offsets / right=0 / bottom=0 / decoder-max-rate=0
Default : Yes
Forced : No
Color range : Limited
Color primaries : BT.709
Transfer characteristics : BT.709
Matrix coefficients : BT.709

Audio
ID : 2
Format : E-AC-3
Format/Info : Enhanced AC-3
Commercial name : Dolby Digital Plus
Codec ID : A_EAC3
Duration : 1 h 39 min
Bit rate mode : Constant
Bit rate : 640 kb/s
Channel(s) : 6 channels
Channel layout : L R C LFE Ls Rs
Sampling rate : 48.0 kHz
Frame rate : 31.250 FPS (1536 SPF)
Compression mode : Lossy
Delay relative to video : 28 ms
Stream size : 457 MiB (4%)
Language : English
Service kind : Complete Main
Default : Yes
Forced : No

Text #1
ID : 3
Format : UTF-8
Codec ID : S_TEXT/UTF8
Codec ID/Info : UTF-8 Plain Text
Duration : 1 h 37 min
Bit rate : 50 b/s
Count of elements : 1082
Stream size : 36.6 KiB (0%)
Language : English
Default : No
Forced : No

Text #2
ID : 4
Format : UTF-8
Codec ID : S_TEXT/UTF8
Codec ID/Info : UTF-8 Plain Text
Duration : 1 h 39 min
Bit rate : 136 b/s
Count of elements : 1362
Stream size : 99.3 KiB (0%)
Title : SDH
Language : English
Default : No
Forced : No



迅雷下载资源速度为零或资源敏感被和谐时,推荐使用qBittorrent等下载软件,有条件的推荐115更好的下载软件!

下载地址:


游客,如果您要查看本帖隐藏内容请回复

游客,如果您要查看本帖隐藏内容请回复

游客,如果您要查看本帖隐藏内容请回复

游客,如果您要查看本帖隐藏内容请回复




.

上一篇:性吸引力 / Sex Appeal (2022) 4K高清版本下载
下一篇:以暴制暴 / run & gun (2022) 4K高清版本下载
回复

使用道具 举报

3

主题

1618

帖子

4450

积分

4K家园VIP

Rank: 9Rank: 9Rank: 9

积分
4450
发表于 2022-1-14 21:50:17 | 显示全部楼层
差评
回复 支持 反对

使用道具 举报

0

主题

8337

帖子

1万

积分

4K家园VIP

Rank: 9Rank: 9Rank: 9

积分
19388
发表于 2022-1-14 22:02:40 | 显示全部楼层
太好啦&萬分感謝版主的無私發佈分享%
回复 支持 反对

使用道具 举报

0

主题

25

帖子

746

积分

4K家园VIP

Rank: 9Rank: 9Rank: 9

积分
746
发表于 2022-1-14 22:39:10 | 显示全部楼层

太好啦&萬分感謝版主的無私發佈分享%
回复 支持 反对

使用道具 举报

0

主题

1

帖子

10

积分

新手上路

Rank: 1

积分
10
发表于 2022-1-15 03:54:13 | 显示全部楼层
下载看看
回复

使用道具 举报

0

主题

300

帖子

1484

积分

注册会员

Rank: 2

积分
1484
发表于 2022-1-15 08:26:41 | 显示全部楼层

Test, just a test

Hello. And Bye.
回复 支持 反对

使用道具 举报

0

主题

300

帖子

1484

积分

注册会员

Rank: 2

积分
1484
发表于 2022-1-15 08:27:10 | 显示全部楼层

Test, just a test

Hello. And Bye.
回复 支持 反对

使用道具 举报

0

主题

300

帖子

1484

积分

注册会员

Rank: 2

积分
1484
发表于 2022-1-15 08:27:40 | 显示全部楼层

Test, just a test

hhhggg7 ??? 2022-1-14 22:39
???&?????????????%

Hello. And Bye.
回复 支持 反对

使用道具 举报

0

主题

2

帖子

9

积分

新手上路

Rank: 1

积分
9
发表于 2022-1-15 21:02:00 来自手机 | 显示全部楼层
感谢分享,楼主安康
回复 支持 反对

使用道具 举报

0

主题

3

帖子

12

积分

新手上路

Rank: 1

积分
12
发表于 2022-1-16 12:19:22 来自手机 | 显示全部楼层
太好了,来了来了
回复 支持 反对

使用道具 举报

您需要登录后才可以回帖 登录 | 立即注册

本版积分规则

精彩图文
Archiver|手机版|TAG|Sitemap|新帖|专题|联系我们:邮箱: 4kjia.com@gmail.com   

4k家园   ©2019