[007之八爪女] 4K-WEBRIP版本下载/18.05GB

[复制链接]
查看: 998|回复: 6

3030

主题

3089

帖子

2万

积分

超级版主

Rank: 8Rank: 8

积分
25393
 楼主| 发表于 2019-3-13 13:13:41 | 显示全部楼层 |阅读模式
p1729902850.webp.jpg

◎译  名 007之八爪女 / 八爪女 / 铁金刚勇破爆炸党
◎片  名 Octopussy
◎年  代 1983
◎产  地 英国 / 美国
◎类  别 动作 / 惊悚 / 冒险
◎语  言 英语 / 俄语 / 德语 / 西班牙语
◎上映日期 1983-06-10
◎IMDb评分 6.6/10 from 85720 users
◎豆瓣评分 6.8/10 from 4876 users
◎片  长 131 分钟
◎导  演 John Glen
◎编  剧 George MacDonald Fraser / Richard Maibaum / Michael G. Wilson / Ian Fleming
◎主  演 Roger Moore
      Maud Adams
      Louis Jourdan
      Kristina Wayborn
      Kabir Bedi



◎简  介  

  这次007(罗杰•摩尔 Roger Moore 饰)的任务是追寻真正的法布尔金蛋,在追踪过程结识了美丽的马戏团女郎“八爪女”(莫德•亚当斯 Maud Adams 饰)。007在“八爪女”的房间找到了重要的证据,从而揭露了苏联的一个大阴谋。原来苏联以走私珠宝的名义和“八爪女”合作,其实暗中企图利用“八爪女”的马戏团巡回表演时当场引爆核弹。007深知事态严重,他必须在苏联引爆核弹前阻止他们的阴谋,他费尽千辛万苦在人群拥挤的马戏团里终于找到核弹并将它拆除。随后,“八爪女”不小心被抓走了,为了朋友,007将只身闯虎穴!

Video
ID : 1
Format : HEVC
Format/Info : High Efficiency Video Coding
Format profile : Main [email protected]@Main
Codec ID : V_MPEGH/ISO/HEVC
Duration : 2 h 10 min
Width : 3 840 pixels
Height : 1 634 pixels
Original height : 2 160 pixels
Display aspect ratio : 16:9
Frame rate mode : Constant
Frame rate : 23.976 (23976/1000) FPS
Color space : YUV
Chroma subsampling : 4:2:0
Bit depth : 10 bits
Language : English
Default : Yes
Forced : No
Color range : Limited
Color primaries : BT.709
Transfer characteristics : BT.709
Matrix coefficients : BT.709

Audio #1
ID : 2
Format : DTS XLL
Format/Info : Digital Theater Systems
Commercial name : DTS-HD Master Audio
Codec ID : A_DTS
Duration : 2 h 10 min
Bit rate mode : Variable
Channel(s) : 6 channels
Channel layout : C L R Ls Rs LFE
Sampling rate : 48.0 kHz
Frame rate : 93.750 FPS (512 SPF)
Bit depth : 24 bits
Compression mode : Lossless
Delay relative to video : 5 s 839 ms
Language : English
Default : Yes
Forced : No

Audio #2
ID : 3
Format : AC-3
Format/Info : Audio Coding 3
Commercial name : Dolby Digital
Codec ID : A_AC3
Duration : 2 h 10 min
Bit rate mode : Constant
Bit rate : 224 kb/s
Channel(s) : 2 channels
Channel layout : L R
Sampling rate : 48.0 kHz
Frame rate : 31.250 FPS (1536 SPF)
Bit depth : 16 bits
Compression mode : Lossy
Delay relative to video : 5 s 839 ms
Stream size : 210 MiB (1%)
Title : Commentary with Roger Moore
Language : English
Service kind : Commentary
Default : No
Forced : No

Audio #3
ID : 4
Format : AC-3
Format/Info : Audio Coding 3
Commercial name : Dolby Digital
Codec ID : A_AC3
Duration : 2 h 10 min
Bit rate mode : Constant
Bit rate : 224 kb/s
Channel(s) : 2 channels
Channel layout : L R
Sampling rate : 48.0 kHz
Frame rate : 31.250 FPS (1536 SPF)
Bit depth : 16 bits
Compression mode : Lossy
Delay relative to video : 5 s 839 ms
Stream size : 210 MiB (1%)
Title : Commentary with Director John Glen
Language : English
Service kind : Commentary
Default : No
Forced : No

Text #1
ID : 18
Format : UTF-8
Codec ID : S_TEXT/UTF8
Codec ID/Info : UTF-8 Plain Text
Title : English
Language : English
Default : No
Forced : No

Text #2
ID : 19
Format : UTF-8
Codec ID : S_TEXT/UTF8
Codec ID/Info : UTF-8 Plain Text
Title : English (SDH)
Language : English
Default : No
Forced : No

Text #3
ID : 20
Format : PGS
Codec ID : S_HDMV/PGS
Codec ID/Info : Picture based subtitle format used on BDs/HD-DVDs
Title : English (SDH)
Language : English
Default : No
Forced : No

Text #4
ID : 21
Format : PGS
Codec ID : S_HDMV/PGS
Codec ID/Info : Picture based subtitle format used on BDs/HD-DVDs
Title : Danish
Language : Danish
Default : No
Forced : No

Text #5
ID : 22
Format : PGS
Codec ID : S_HDMV/PGS
Codec ID/Info : Picture based subtitle format used on BDs/HD-DVDs
Title : Dutch
Language : Dutch
Default : No
Forced : No

Text #6
ID : 23
Format : PGS
Codec ID : S_HDMV/PGS
Codec ID/Info : Picture based subtitle format used on BDs/HD-DVDs
Title : Finnish
Language : Finnish
Default : No
Forced : No

Text #7
ID : 24
Format : PGS
Codec ID : S_HDMV/PGS
Codec ID/Info : Picture based subtitle format used on BDs/HD-DVDs
Title : French
Language : French
Default : No
Forced : No

Text #8
ID : 25
Format : PGS
Codec ID : S_HDMV/PGS
Codec ID/Info : Picture based subtitle format used on BDs/HD-DVDs
Title : German
Language : German
Default : No
Forced : No

Text #9
ID : 26
Format : PGS
Codec ID : S_HDMV/PGS
Codec ID/Info : Picture based subtitle format used on BDs/HD-DVDs
Title : Norwegian
Language : Norwegian
Default : No
Forced : No

Text #10
ID : 27
Format : PGS
Codec ID : S_HDMV/PGS
Codec ID/Info : Picture based subtitle format used on BDs/HD-DVDs
Title : Portuguese
Language : Portuguese
Default : No
Forced : No

Text #11
ID : 28
Format : PGS
Codec ID : S_HDMV/PGS
Codec ID/Info : Picture based subtitle format used on BDs/HD-DVDs
Title : Spanish
Language : Spanish
Default : No
Forced : No

Text #12
ID : 29
Format : PGS
Codec ID : S_HDMV/PGS
Codec ID/Info : Picture based subtitle format used on BDs/HD-DVDs
Title : Swedish
Language : Swedish
Default : No
Forced : No

Text #13
ID : 30
Format : PGS
Codec ID : S_HDMV/PGS
Codec ID/Info : Picture based subtitle format used on BDs/HD-DVDs
Title : Commentary with Director John Glen
Language : English
Default : No
Forced : No

Menu
00:00:00.000 : en:Chapter 01
00:03:16.947 : en:Chapter 02
00:07:28.198 : en:Chapter 03
00:10:36.177 : en:Chapter 04
00:13:22.760 : en:Chapter 05
00:16:10.094 : en:Chapter 06
00:19:33.089 : en:Chapter 07
00:25:20.728 : en:Chapter 08
00:29:13.669 : en:Chapter 09
00:34:10.840 : en:Chapter 10
00:38:50.537 : en:Chapter 11
00:41:38.371 : en:Chapter 12
00:46:29.286 : en:Chapter 13
00:49:10.072 : en:Chapter 14
00:53:43.429 : en:Chapter 15
00:56:22.588 : en:Chapter 16
01:00:27.123 : en:Chapter 17
01:06:06.337 : en:Chapter 18
01:11:43.925 : en:Chapter 19
01:14:10.696 : en:Chapter 20
01:20:24.403 : en:Chapter 21
01:22:27.860 : en:Chapter 22
01:25:32.377 : en:Chapter 23
01:28:24.174 : en:Chapter 24
01:31:51.297 : en:Chapter 25
01:40:06.959 : en:Chapter 26
01:45:25.861 : en:Chapter 27
01:51:06.451 : en:Chapter 28
01:55:59.452 : en:Chapter 29
01:59:50.100 : en:Chapter 30
02:02:46.067 : en:Chapter 31
02:07:35.106 : en:Chapter 32


ebce4c73cfa8461221916f76dc5473ad.jpg 13d6536d9f18c0dcf91f21751be993e0.jpg


游客,如果您要查看本帖隐藏内容请回复


上一篇:[神探蒲松龄] 4K-爱奇艺版本下载/纯净版/5.39GB
下一篇:[白人男孩瑞克] 4K-WEBRIP版本下载/11.22GB/11.19GB
回复

使用道具 举报

0

主题

835

帖子

2521

积分

4K家园VIP

Rank: 9Rank: 9Rank: 9

积分
2521
发表于 2019-3-13 13:13:47 | 显示全部楼层
差评
回复 支持 反对

使用道具 举报

0

主题

2

帖子

23

积分

新手上路

Rank: 1

积分
23
发表于 2019-3-13 21:38:04 | 显示全部楼层
好资源!最好集齐23部。
回复 支持 反对

使用道具 举报

0

主题

1019

帖子

2693

积分

4K家园VIP

Rank: 9Rank: 9Rank: 9

积分
2693
发表于 7 天前 | 显示全部楼层
占坑编辑ing
回复 支持 反对

使用道具 举报

0

主题

807

帖子

2251

积分

4K家园VIP

Rank: 9Rank: 9Rank: 9

积分
2251
发表于 7 天前 | 显示全部楼层
我只是路过,不发表意见
回复 支持 反对

使用道具 举报

0

主题

864

帖子

2610

积分

4K家园VIP

Rank: 9Rank: 9Rank: 9

积分
2610
发表于 7 天前 | 显示全部楼层
发发呆,回回帖,工作结束~
回复 支持 反对

使用道具 举报

0

主题

795

帖子

2409

积分

4K家园VIP

Rank: 9Rank: 9Rank: 9

积分
2409
发表于 7 天前 | 显示全部楼层
支持你哈...................................
回复 支持 反对

使用道具 举报

您需要登录后才可以回帖 登录 | 立即注册

本版积分规则

精彩图文
关闭

站长推荐上一条 /2 下一条

4k家园   ©2015-2019