灵异女仆(内封中字)/Servant 第三季全10集(2022)/4K高清版本下载

[复制链接]

130

主题

149

帖子

1459

积分

版主

Rank: 7Rank: 7Rank: 7

积分
1459
 楼主| 发表于 2022-3-27 19:28:09 | 显示全部楼层 |阅读模式
本帖最后由 美剧小虾 于 2022-3-28 17:54 编辑

p2783492814_副本.jpg

◎译  名 灵异女仆 第三季/灵异女仆(台)/仆人
◎片  名 Servant Season 3
◎年  代 2022
◎产  地 美国
◎类  别 剧情/悬疑/惊悚/恐怖
◎语  言 英语
◎上映日期 2022-01-21(美国)
◎IMDb评分  7.5/10 from 31116 users
◎IMDb链接  https://www.imdb.com/title/tt8068860/
◎豆瓣评分 7.5/10 from 296 users
◎豆瓣链接 https://douban.com/subject/35290453/
◎片  长 30分钟
◎导  演 M·奈特·沙马兰 M. Night Shyamalan
◎编  剧 托尼·巴斯加勒普 Tony Basgallop
◎主  演 劳伦·艾波罗丝 Lauren Ambrose
       托比·凯贝尔 Toby Kebbell
       鲁伯特·格林特 Rupert Grint
       尼尔·泰格·弗莉 Nell Tiger Free


◎简  介


  第三季将自上季结尾的三个月后讲起,随着乔瑟芬婶婶去世后,莉安始终摆脱不了阴影,疑神疑鬼的现象也越来越严重。至于已接回男婴的透纳一家则期望过着正常的生活,这个心愿看来遥遥无期。
General
Complete name                  : F:\4K@美剧\Servant.S03.2160p.ATVP.WEB-DL.DDP5.1.Atmos.DV.MP4.x265-DVSUX
Format                         : MPEG-4
Format profile                 : Base Media / Version 2
Codec ID                       : mp42 (isom/mp42/dby1)
File size                      : 5.98 GiB
Duration                       : 34 min 7 s
Overall bit rate mode          : Variable
Overall bit rate               : 25.1 Mb/s
Encoded date                   : UTC 2022-03-25 08:05:47
Tagged date                    : UTC 2022-03-25 08:05:47
IsTruncated                    : Yes

Video
ID                             : 1
Format                         : HEVC
Format/Info                    : High Efficiency Video Coding
Format profile                 : Main 10@L5@High
HDR format                     : Dolby Vision, Version 1.0, dvhe.05.06, BL+RPU
Codec ID                       : dvhe
Codec ID/Info                  : High Efficiency Video Coding with Dolby Vision
Duration                       : 34 min 7 s
Bit rate                       : 24.8 Mb/s
Width                          : 3 840 pixels
Height                         : 1 920 pixels
Display aspect ratio           : 2.000
Frame rate mode                : Constant
Frame rate                     : 23.976 (24000/1001) FPS
Color space                    : YUV
Chroma subsampling             : 4:2:0
Bit depth                      : 10 bits
Bits/(Pixel*Frame)             : 0.141
Stream size                    : 5.92 GiB (99%)
Default                        : Yes
Alternate group                : 1
Encoded date                   : UTC 2022-03-25 08:05:30
Tagged date                    : UTC 2022-03-25 08:05:54
Codec configuration box        : hvcC+dvcC

Audio
ID                             : 2
Format                         : E-AC-3 JOC
Format/Info                    : Enhanced AC-3 with Joint Object Coding
Commercial name                : Dolby Digital Plus with Dolby Atmos
Codec ID                       : ec-3
Duration                       : 34 min 7 s
Bit rate mode                  : Constant
Bit rate                       : 768 kb/s
Maximum bit rate               : 811 kb/s
Channel(s)                     : 6 channels
Channel layout                 : L R C LFE Ls Rs
Sampling rate                  : 48.0 kHz
Frame rate                     : 31.250 FPS (1536 SPF)
Compression mode               : Lossy
Stream size                    : 187 MiB (3%)
Title                          : English
Language                       : English
Service kind                   : Complete Main
Default                        : Yes
Alternate group                : 1
Tagged date                    : UTC 2022-03-25 08:05:54
Complexity index               : Not present / 16
Number of dynamic objects      : 15
Bed channel count              : 1 channel
Bed channel configuration      : LFE

Text #1
ID                             : 3
Format                         : Timed Text
Codec ID                       : tx3g
Duration                       : 33 min 4 s
Bit rate mode                  : Variable
Bit rate                       : 49 b/s
Stream size                    : 12.0 KiB (0%)
Title                          : English
Language                       : English
Forced                         : No
Encoded date                   : UTC 2022-03-25 08:05:53
Tagged date                    : UTC 2022-03-25 08:05:54

Text #2
ID                             : 4
Format                         : Timed Text
Codec ID                       : tx3g
Duration                       : 34 min 0 s
Bit rate mode                  : Variable
Bit rate                       : 67 b/s
Stream size                    : 16.8 KiB (0%)
Title                          : Arabic
Language                       : Arabic
Forced                         : No
Encoded date                   : UTC 2022-03-25 08:05:53
Tagged date                    : UTC 2022-03-25 08:05:54

Text #3
ID                             : 5
Format                         : Timed Text
Codec ID                       : tx3g
Duration                       : 34 min 0 s
Bit rate mode                  : Variable
Bit rate                       : 72 b/s
Stream size                    : 17.9 KiB (0%)
Title                          : Bulgarian
Language                       : Bulgarian
Forced                         : No
Encoded date                   : UTC 2022-03-25 08:05:53
Tagged date                    : UTC 2022-03-25 08:05:54

Text #4
ID                             : 6
Format                         : Timed Text
Codec ID                       : tx3g
Duration                       : 34 min 0 s
Bit rate mode                  : Variable
Bit rate                       : 46 b/s
Stream size                    : 11.4 KiB (0%)
Title                          : 中文(粤语)
Language                       : 中文
Forced                         : No
Encoded date                   : UTC 2022-03-25 08:05:53
Tagged date                    : UTC 2022-03-25 08:05:54

Text #5
ID                             : 7
Format                         : Timed Text
Codec ID                       : tx3g
Duration                       : 34 min 0 s
Bit rate mode                  : Variable
Bit rate                       : 44 b/s
Stream size                    : 11.0 KiB (0%)
Title                          : 中文(简体)
Language                       : 中文
Forced                         : No
Encoded date                   : UTC 2022-03-25 08:05:53
Tagged date                    : UTC 2022-03-25 08:05:54

Text #6
ID                             : 8
Format                         : Timed Text
Codec ID                       : tx3g
Duration                       : 34 min 0 s
Bit rate mode                  : Variable
Bit rate                       : 44 b/s
Stream size                    : 11.0 KiB (0%)
Title                          : 中文(繁体)
Language                       : 中文
Forced                         : No
Encoded date                   : UTC 2022-03-25 08:05:53
Tagged date                    : UTC 2022-03-25 08:05:54


Text #7
ID                             : 9
Format                         : Timed Text
Codec ID                       : tx3g
Duration                       : 34 min 0 s
Bit rate mode                  : Variable
Bit rate                       : 44 b/s
Stream size                    : 10.9 KiB (0%)
Title                          : Czech
Language                       : Czech
Forced                         : No
Encoded date                   : UTC 2022-03-25 08:05:53
Tagged date                    : UTC 2022-03-25 08:05:54

Text #8
ID                             : 10
Format                         : Timed Text
Codec ID                       : tx3g
Duration                       : 34 min 0 s
Bit rate mode                  : Variable
Bit rate                       : 42 b/s
Stream size                    : 10.5 KiB (0%)
Title                          : Danish
Language                       : Danish
Forced                         : No
Encoded date                   : UTC 2022-03-25 08:05:53
Tagged date                    : UTC 2022-03-25 08:05:54

Text #9
ID                             : 11
Format                         : Timed Text
Codec ID                       : tx3g
Duration                       : 34 min 0 s
Bit rate mode                  : Variable
Bit rate                       : 42 b/s
Stream size                    : 10.5 KiB (0%)
Title                          : Dutch
Language                       : Dutch
Forced                         : No
Encoded date                   : UTC 2022-03-25 08:05:53
Tagged date                    : UTC 2022-03-25 08:05:54

Text #10
ID                             : 12
Format                         : Timed Text
Codec ID                       : tx3g
Duration                       : 34 min 0 s
Bit rate mode                  : Variable
Bit rate                       : 43 b/s
Stream size                    : 10.6 KiB (0%)
Title                          : Finnish
Language                       : Finnish
Forced                         : No
Encoded date                   : UTC 2022-03-25 08:05:53
Tagged date                    : UTC 2022-03-25 08:05:54

Text #11
ID                             : 13
Format                         : Timed Text
Codec ID                       : tx3g
Duration                       : 33 min 40 s
Bit rate mode                  : Variable
Bit rate                       : 44 b/s
Stream size                    : 10.9 KiB (0%)
Title                          : French
Language                       : French
Forced                         : No
Encoded date                   : UTC 2022-03-25 08:05:53
Tagged date                    : UTC 2022-03-25 08:05:54

Text #12
ID                             : 14
Format                         : Timed Text
Codec ID                       : tx3g
Duration                       : 33 min 40 s
Bit rate mode                  : Variable
Bit rate                       : 44 b/s
Stream size                    : 10.9 KiB (0%)
Title                          : French
Language                       : French
Forced                         : No
Encoded date                   : UTC 2022-03-25 08:05:53
Tagged date                    : UTC 2022-03-25 08:05:54

Text #13
ID                             : 15
Format                         : Timed Text
Codec ID                       : tx3g
Duration                       : 34 min 0 s
Bit rate mode                  : Variable
Bit rate                       : 51 b/s
Stream size                    : 12.6 KiB (0%)
Title                          : German
Language                       : German
Forced                         : No
Encoded date                   : UTC 2022-03-25 08:05:53
Tagged date                    : UTC 2022-03-25 08:05:54

Text #14
ID                             : 16
Format                         : Timed Text
Codec ID                       : tx3g
Duration                       : 34 min 0 s
Bit rate mode                  : Variable
Bit rate                       : 78 b/s
Stream size                    : 19.4 KiB (0%)
Title                          : Greek
Language                       : Greek
Forced                         : No
Encoded date                   : UTC 2022-03-25 08:05:53
Tagged date                    : UTC 2022-03-25 08:05:54

Text #15
ID                             : 17
Format                         : Timed Text
Codec ID                       : tx3g
Duration                       : 34 min 0 s
Bit rate mode                  : Variable
Bit rate                       : 64 b/s
Stream size                    : 15.8 KiB (0%)
Title                          : Hebrew
Language                       : Hebrew
Forced                         : No
Encoded date                   : UTC 2022-03-25 08:05:53
Tagged date                    : UTC 2022-03-25 08:05:54

Text #16
ID                             : 18
Format                         : Timed Text
Codec ID                       : tx3g
Duration                       : 34 min 0 s
Bit rate mode                  : Variable
Bit rate                       : 124 b/s
Stream size                    : 31.0 KiB (0%)
Title                          : Hindi
Language                       : Hindi
Forced                         : No
Encoded date                   : UTC 2022-03-25 08:05:53
Tagged date                    : UTC 2022-03-25 08:05:54

Text #17
ID                             : 19
Format                         : Timed Text
Codec ID                       : tx3g
Duration                       : 34 min 0 s
Bit rate mode                  : Variable
Bit rate                       : 44 b/s
Stream size                    : 10.9 KiB (0%)
Title                          : Hungarian
Language                       : Hungarian
Forced                         : No
Encoded date                   : UTC 2022-03-25 08:05:53
Tagged date                    : UTC 2022-03-25 08:05:54

Text #18
ID                             : 20
Format                         : Timed Text
Codec ID                       : tx3g
Duration                       : 34 min 0 s
Bit rate mode                  : Variable
Bit rate                       : 48 b/s
Stream size                    : 11.9 KiB (0%)
Title                          : Indonesian
Language                       : Indonesian
Forced                         : No
Encoded date                   : UTC 2022-03-25 08:05:54
Tagged date                    : UTC 2022-03-25 08:05:54

Text #19
ID                             : 21
Format                         : Timed Text
Codec ID                       : tx3g
Duration                       : 34 min 0 s
Bit rate mode                  : Variable
Bit rate                       : 49 b/s
Stream size                    : 12.3 KiB (0%)
Title                          : Italian
Language                       : Italian
Forced                         : No
Encoded date                   : UTC 2022-03-25 08:05:54
Tagged date                    : UTC 2022-03-25 08:05:54

Text #20
ID                             : 22
Format                         : Timed Text
Codec ID                       : tx3g
Duration                       : 34 min 6 s
Bit rate mode                  : Variable
Bit rate                       : 39 b/s
Stream size                    : 9.82 KiB (0%)
Title                          : Japanese
Language                       : Japanese
Forced                         : No
Encoded date                   : UTC 2022-03-25 08:05:54
Tagged date                    : UTC 2022-03-25 08:05:54

Text #21
ID                             : 23
Format                         : Timed Text
Codec ID                       : tx3g
Duration                       : 34 min 0 s
Bit rate mode                  : Variable
Bit rate                       : 52 b/s
Stream size                    : 12.9 KiB (0%)
Title                          : Korean
Language                       : Korean
Forced                         : No
Encoded date                   : UTC 2022-03-25 08:05:54
Tagged date                    : UTC 2022-03-25 08:05:54

Text #22
ID                             : 24
Format                         : Timed Text
Codec ID                       : tx3g
Duration                       : 34 min 0 s
Bit rate mode                  : Variable
Bit rate                       : 49 b/s
Stream size                    : 12.2 KiB (0%)
Title                          : Latvian
Language                       : Latvian
Forced                         : No
Encoded date                   : UTC 2022-03-25 08:05:54
Tagged date                    : UTC 2022-03-25 08:05:54

Text #23
ID                             : 25
Format                         : Timed Text
Codec ID                       : tx3g
Duration                       : 34 min 0 s
Bit rate mode                  : Variable
Bit rate                       : 48 b/s
Stream size                    : 11.9 KiB (0%)
Title                          : Malay
Language                       : Malay
Forced                         : No
Encoded date                   : UTC 2022-03-25 08:05:54
Tagged date                    : UTC 2022-03-25 08:05:54

Text #24
ID                             : 26
Format                         : Timed Text
Codec ID                       : tx3g
Duration                       : 34 min 0 s
Bit rate mode                  : Variable
Bit rate                       : 45 b/s
Stream size                    : 11.1 KiB (0%)
Title                          : Norwegian
Language                       : Norwegian
Forced                         : No
Encoded date                   : UTC 2022-03-25 08:05:54
Tagged date                    : UTC 2022-03-25 08:05:54

Text #25
ID                             : 27
Format                         : Timed Text
Codec ID                       : tx3g
Duration                       : 34 min 0 s
Bit rate mode                  : Variable
Bit rate                       : 44 b/s
Stream size                    : 10.9 KiB (0%)
Title                          : Polish
Language                       : Polish
Forced                         : No
Encoded date                   : UTC 2022-03-25 08:05:54
Tagged date                    : UTC 2022-03-25 08:05:54

Text #26
ID                             : 28
Format                         : Timed Text
Codec ID                       : tx3g
Duration                       : 34 min 0 s
Bit rate mode                  : Variable
Bit rate                       : 42 b/s
Stream size                    : 10.4 KiB (0%)
Title                          : Portuguese
Language                       : Portuguese
Forced                         : No
Encoded date                   : UTC 2022-03-25 08:05:54
Tagged date                    : UTC 2022-03-25 08:05:54

Text #27
ID                             : 29
Format                         : Timed Text
Codec ID                       : tx3g
Duration                       : 34 min 0 s
Bit rate mode                  : Variable
Bit rate                       : 47 b/s
Stream size                    : 11.7 KiB (0%)
Title                          : Portuguese
Language                       : Portuguese
Forced                         : No
Encoded date                   : UTC 2022-03-25 08:05:54
Tagged date                    : UTC 2022-03-25 08:05:54

Text #28
ID                             : 30
Format                         : Timed Text
Codec ID                       : tx3g
Duration                       : 34 min 0 s
Bit rate mode                  : Variable
Bit rate                       : 73 b/s
Stream size                    : 18.1 KiB (0%)
Title                          : Russian
Language                       : Russian
Forced                         : No
Encoded date                   : UTC 2022-03-25 08:05:54
Tagged date                    : UTC 2022-03-25 08:05:54

Text #29
ID                             : 31
Format                         : Timed Text
Codec ID                       : tx3g
Duration                       : 34 min 0 s
Bit rate mode                  : Variable
Bit rate                       : 45 b/s
Stream size                    : 11.1 KiB (0%)
Title                          : Slovak
Language                       : Slovak
Forced                         : No
Encoded date                   : UTC 2022-03-25 08:05:54
Tagged date                    : UTC 2022-03-25 08:05:54

Text #30
ID                             : 32
Format                         : Timed Text
Codec ID                       : tx3g
Duration                       : 34 min 0 s
Bit rate mode                  : Variable
Bit rate                       : 38 b/s
Stream size                    : 9.46 KiB (0%)
Title                          : Slovenian
Language                       : Slovenian
Forced                         : No
Encoded date                   : UTC 2022-03-25 08:05:54
Tagged date                    : UTC 2022-03-25 08:05:54

Text #31
ID                             : 33
Format                         : Timed Text
Codec ID                       : tx3g
Duration                       : 34 min 0 s
Bit rate mode                  : Variable
Bit rate                       : 46 b/s
Stream size                    : 11.5 KiB (0%)
Title                          : Spanish
Language                       : Spanish
Forced                         : No
Encoded date                   : UTC 2022-03-25 08:05:54
Tagged date                    : UTC 2022-03-25 08:05:54

Text #32
ID                             : 34
Format                         : Timed Text
Codec ID                       : tx3g
Duration                       : 34 min 0 s
Bit rate mode                  : Variable
Bit rate                       : 47 b/s
Stream size                    : 11.8 KiB (0%)
Title                          : Spanish-EU
Language                       : Spanish
Forced                         : No
Encoded date                   : UTC 2022-03-25 08:05:54
Tagged date                    : UTC 2022-03-25 08:05:54

Text #33
ID                             : 35
Format                         : Timed Text
Codec ID                       : tx3g
Duration                       : 34 min 0 s
Bit rate mode                  : Variable
Bit rate                       : 46 b/s
Stream size                    : 11.4 KiB (0%)
Title                          : Swedish
Language                       : Swedish
Forced                         : No
Encoded date                   : UTC 2022-03-25 08:05:54
Tagged date                    : UTC 2022-03-25 08:05:54

Text #34
ID                             : 36
Format                         : Timed Text
Codec ID                       : tx3g
Duration                       : 34 min 0 s
Bit rate mode                  : Variable
Bit rate                       : 148 b/s
Stream size                    : 36.9 KiB (0%)
Title                          : Tamil
Language                       : Tamil
Forced                         : No
Encoded date                   : UTC 2022-03-25 08:05:54
Tagged date                    : UTC 2022-03-25 08:05:54

Text #35
ID                             : 37
Format                         : Timed Text
Codec ID                       : tx3g
Duration                       : 34 min 0 s
Bit rate mode                  : Variable
Bit rate                       : 138 b/s
Stream size                    : 34.4 KiB (0%)
Title                          : Telugu
Language                       : Telugu
Forced                         : No
Encoded date                   : UTC 2022-03-25 08:05:54
Tagged date                    : UTC 2022-03-25 08:05:54

Text #36
ID                             : 38
Format                         : Timed Text
Codec ID                       : tx3g
Duration                       : 34 min 0 s
Bit rate mode                  : Variable
Bit rate                       : 113 b/s
Stream size                    : 28.0 KiB (0%)
Title                          : Thai
Language                       : Thai
Forced                         : No
Encoded date                   : UTC 2022-03-25 08:05:54
Tagged date                    : UTC 2022-03-25 08:05:54

Text #37
ID                             : 39
Format                         : Timed Text
Codec ID                       : tx3g
Duration                       : 34 min 0 s
Bit rate mode                  : Variable
Bit rate                       : 51 b/s
Stream size                    : 12.8 KiB (0%)
Title                          : Turkish
Language                       : Turkish
Forced                         : No
Encoded date                   : UTC 2022-03-25 08:05:54
Tagged date                    : UTC 2022-03-25 08:05:54

Text #38
ID                             : 40
Format                         : Timed Text
Codec ID                       : tx3g
Duration                       : 34 min 0 s
Bit rate mode                  : Variable
Bit rate                       : 68 b/s
Stream size                    : 16.9 KiB (0%)
Title                          : Ukrainian
Language                       : Ukrainian
Forced                         : No
Encoded date                   : UTC 2022-03-25 08:05:54
Tagged date                    : UTC 2022-03-25 08:05:54

Text #39
ID                             : 41
Format                         : Timed Text
Codec ID                       : tx3g
Duration                       : 34 min 0 s
Bit rate mode                  : Variable
Bit rate                       : 58 b/s
Stream size                    : 14.6 KiB (0%)
Title                          : Vietnamese
Language                       : Vietnamese
Forced                         : No
Encoded date                   : UTC 2022-03-25 08:05:54
Tagged date                    : UTC 2022-03-25 08:05:54

下载地址:
游客,如果您要查看本帖隐藏内容请回复

游客,如果您要查看本帖隐藏内容请回复

游客,如果您要查看本帖隐藏内容请回复

游客,如果您要查看本帖隐藏内容请回复



.

上一篇:光环(附字幕)/ Halo (2021) / 第一季9集全 / 4K高清版本下载
下一篇:镜像人生(内嵌中字)/Parallèles第一季全6集(2022)/4K高清版本下载
回复

使用道具 举报

54

主题

1474

帖子

4268

积分

4K家园VIP

Rank: 9Rank: 9Rank: 9

积分
4268
发表于 2022-3-27 19:28:28 | 显示全部楼层
学习下
回复 支持 反对

使用道具 举报

50

主题

1499

帖子

4301

积分

4K家园VIP

Rank: 9Rank: 9Rank: 9

积分
4301
发表于 2022-3-27 20:36:37 | 显示全部楼层
垃圾
回复 支持 反对

使用道具 举报

0

主题

8230

帖子

1万

积分

4K家园VIP

Rank: 9Rank: 9Rank: 9

积分
18830
发表于 2022-3-27 20:51:12 | 显示全部楼层
廣東龍門永遠馬到成功&萬分感謝版主的無私發佈分享%
回复 支持 反对

使用道具 举报

6

主题

1645

帖子

4523

积分

中级会员

Rank: 4

积分
4523
发表于 2022-3-27 21:52:30 | 显示全部楼层
佩服佩服!
回复 支持 反对

使用道具 举报

0

主题

1397

帖子

4037

积分

4K家园VIP

Rank: 9Rank: 9Rank: 9

积分
4037
发表于 2022-3-27 22:03:51 | 显示全部楼层
差评
回复 支持 反对

使用道具 举报

1

主题

1263

帖子

3807

积分

4K家园VIP

Rank: 9Rank: 9Rank: 9

积分
3807
发表于 2022-3-27 22:22:19 | 显示全部楼层
支持下楼主,顶一个
回复 支持 反对

使用道具 举报

0

主题

3

帖子

15

积分

新手上路

Rank: 1

积分
15
发表于 2022-3-28 11:33:32 | 显示全部楼层
感谢分享好人一生平安
回复 支持 反对

使用道具 举报

0

主题

10

帖子

129

积分

4K家园VIP

Rank: 9Rank: 9Rank: 9

积分
129
发表于 2022-4-30 07:37:31 来自手机 | 显示全部楼层
太好了太好了
回复 支持 反对

使用道具 举报

您需要登录后才可以回帖 登录 | 立即注册

本版积分规则

精彩图文
Archiver|手机版|TAG|Sitemap|新帖|专题|联系我们:邮箱: 4kjia.com@gmail.com   

4k家园   ©2019