[国家地理] [4K国家地理] 锡罗斯岛 (2021) [2160P/MKV/473MB]

[复制链接]

2764

主题

3122

帖子

2万

积分

超级版主

Rank: 8Rank: 8

积分
26173
 楼主| 发表于 2022-3-30 03:30:00 | 显示全部楼层 |阅读模式

ОСТРОВ СИРОС.mkv_20220329_211544.314.jpg ОСТРОВ СИРОС.mkv_20220329_211557.436.jpg ОСТРОВ СИРОС.mkv_20220329_211605.155.jpg ОСТРОВ СИРОС.mkv_20220329_211613.852.jpg ОСТРОВ СИРОС.mkv_20220329_211621.140.jpg ОСТРОВ СИРОС.mkv_20220329_211634.051.jpg

电影信息
片名:锡罗斯岛
上映年份: 2021
国家:希腊
时间: 00:02:52
类型: 物种
导演:尼科斯·马夫罗克法洛斯

关于电影:

     锡罗斯岛是希腊爱琴海的一个岛屿。基克拉泽斯群岛中人口最多的岛屿,位于雅典东南约 140 公里处。

General
Complete name                  : F:\4K国家地理\锡罗斯岛.mkv
Format                         : Matroska
Format version                 : Version 4
File size                      : 474 MiB
Duration                       : 2 min 52 s
Overall bit rate               : 23.1 Mb/s
Encoded date                   : UTC 2022-03-27 12:05:13
Writing application            : mkvmerge v65.0.0 ('Too Much') 64-bit
Writing library                : libebml v1.4.2 + libmatroska v1.6.4

Video
ID                             : 1
Format                         : AVC
Format/Info                    : Advanced Video Codec
Format profile                 : High@L5.2
Format settings                : CABAC / 5 Ref Frames
Format settings, CABAC         : Yes
Format settings, Reference fra : 5 frames
Codec ID                       : V_MPEG4/ISO/AVC
Duration                       : 2 min 52 s
Bit rate                       : 22.8 Mb/s
Width                          : 3 840 pixels
Height                         : 2 160 pixels
Display aspect ratio           : 16:9
Frame rate mode                : Constant
Frame rate                     : 25.000 FPS
Color space                    : YUV
Chroma subsampling             : 4:2:0
Bit depth                      : 8 bits
Scan type                      : Progressive
Bits/(Pixel*Frame)             : 0.110
Stream size                    : 469 MiB (99%)
Writing library                : x264 core 164 r10 ae03D92
Encoding settings              : cabac=1 / ref=5 / deblock=1:0:0 / analyse=0x3:0x113 / me=hex / subme=8 / psy=1 / psy_rd=1.00:0.00 / mixed_ref=1 / me_range=16 / chroma_me=1 / trellis=2 / 8x8dct=1 / cqm=0 / deadzone=21,11 / fast_pskip=1 / chroma_qp_offset=-2 / threads=48 / lookahead_threads=8 / sliced_threads=0 / nr=0 / decimate=1 / interlaced=0 / bluray_compat=0 / stitchable=1 / constrained_intra=0 / bframes=3 / b_pyramid=2 / b_adapt=2 / b_bias=0 / direct=3 / weightb=1 / open_gop=0 / weightp=2 / keyint=infinite / keyint_min=25 / scenecut=40 / intra_refresh=0 / rc_lookahead=50 / rc=crf / mbtree=1 / crf=20.0 / qcomp=0.60 / qpmin=5 / qpmax=69 / qpstep=4 / vbv_maxrate=24200 / vbv_bufsize=66000 / crf_max=0.0 / nal_hrd=none / filler=0 / ip_ratio=1.40 / aq=1:1.00
Default                        : Yes
Forced                         : No
Color range                    : Limited
Color primaries                : BT.709
Transfer characteristics       : BT.709
Matrix coefficients            : BT.709

Audio
ID                             : 2
Format                         : AAC LC
Format/Info                    : Advanced Audio Codec Low Complexity
Codec ID                       : A_AAC-2
Duration                       : 2 min 52 s
Bit rate                       : 253 kb/s
Channel(s)                     : 2 channels
Channel layout                 : L R
Sampling rate                  : 48.0 kHz
Frame rate                     : 46.875 FPS (1024 SPF)
Compression mode               : Lossy
Stream size                    : 5.20 MiB (1%)
Default                        : Yes
Forced                         : No
下载地址:

****此区域为收费内容****    需支付 15 金币后可查看立即购买






上一篇:[4K国家地理] 冬天的埃菲尔和阿登 (2021) [2160P/MKV/638MB]
下一篇:[4K国家地理] 挪威--北部壮观冬季仙境 (2019-2022) [2160P/MKV/1.23GB]
回复

使用道具 举报

1

主题

1149

帖子

3467

积分

4K家园VIP

Rank: 9Rank: 9Rank: 9

积分
3467
发表于 2022-3-30 03:30:13 | 显示全部楼层
支持一下楼主,顶起来
回复 支持 反对

使用道具 举报

1

主题

1388

帖子

4000

积分

4K家园VIP

Rank: 9Rank: 9Rank: 9

积分
4000
发表于 2022-3-30 03:50:45 | 显示全部楼层
边撸边过
回复 支持 反对

使用道具 举报

0

主题

8229

帖子

1万

积分

4K家园VIP

Rank: 9Rank: 9Rank: 9

积分
18809
发表于 2022-3-30 07:33:39 | 显示全部楼层
希臘愛琴海錫羅斯島4k
回复 支持 反对

使用道具 举报

1

主题

2

帖子

76

积分

新手上路

Rank: 1

积分
76
发表于 2022-3-30 09:43:52 | 显示全部楼层
希腊爱琴海俄罗斯岛
回复 支持 反对

使用道具 举报

1

主题

1203

帖子

3631

积分

4K家园VIP

Rank: 9Rank: 9Rank: 9

积分
3631
发表于 2022-3-30 21:43:08 | 显示全部楼层
4K家园不错,希望这种资源越多越好
回复 支持 反对

使用道具 举报

48

主题

1497

帖子

4309

积分

4K家园VIP

Rank: 9Rank: 9Rank: 9

积分
4309
发表于 2022-4-1 09:11:09 来自手机 | 显示全部楼层
边撸边过
回复 支持 反对

使用道具 举报

66

主题

1536

帖子

4472

积分

4K家园VIP

Rank: 9Rank: 9Rank: 9

积分
4472
发表于 2022-4-2 02:07:13 | 显示全部楼层
LZ敢整点更有创意的不?兄弟们等着围观捏~
回复 支持 反对

使用道具 举报

您需要登录后才可以回帖 登录 | 立即注册

本版积分规则

精彩图文
Archiver|手机版|TAG|Sitemap|新帖|专题|联系我们:邮箱: 4kjia.com@gmail.com   

4k家园   ©2019