[4K电影] 登月计划 / Moonshot (2022) 4K高清版本下载

[复制链接]

1733

主题

1866

帖子

1万

积分

超级版主

Rank: 8Rank: 8

积分
14095
 楼主| 发表于 2022-3-31 19:42:45 | 显示全部楼层 |阅读模式

QQ图片20220331194140_副本.png

◎译  名 登月计划/火星计划
◎片  名 Moonshot
◎年  代 2022
◎产  地 美国
◎类  别 喜剧/爱情/科幻
◎语  言 英语
◎上映日期 2022-03-31(美国网络)
◎IMDb评分  0/10 from 0 users
◎IMDb链接  https://www.imdb.com/title/tt12585076/
◎豆瓣评分 0/10 from 0 users
◎豆瓣链接 https://movie.douban.com/subject/35446643/
◎主  演 拉娜·康多 Lana Condor
      梅森·古丁 Mason Gooding
      科尔·斯普罗斯 Cole Sprouse
      卢卡斯·盖奇 Lukas Gage
      扎克·布拉夫 Zach Braff
      蜜雪儿·伯托 Michelle Buteau
      克里斯蒂尼·亚当斯 Christine Adams
      埃米莉·拉德 Emily Rudd
      杰伊·古铁雷斯 Jay Gutierrez
      杰森·麦克唐纳 Jason MacDonald
      埃里克·蒂德 Eric Tiede
      阿德丁博·汤玛斯 Adetinpo Thomas
      查瑞蒂·塞万提斯 Charity Cervantes
      戴维·约翰逊 Davey Johnson


◎简  介


  拉娜·康多和科尔·斯普罗斯将主演科幻爱情喜剧片《登月计划》(Moonshot),克里斯托弗·温特鲍尔执导,Max Taxe写剧本,HBO Max出品。设定在未来,火星被人类所能提供最好的条件改造和殖民,两名截然不同的大学生结盟,潜入了飞往火星的太空飞船,以便与他们重要的人团聚。

Audio
ID : 2
Format : E-AC-3 JOC
Format/Info : Enhanced AC-3 with Joint Object Coding
Commercial name : Dolby Digital Plus with Dolby Atmos
Codec ID : ec-3
Duration : 1 h 44 min
Bit rate mode : Constant
Bit rate : 768 kb/s
Maximum bit rate : 811 kb/s
Channel(s) : 6 channels
Channel layout : L R C LFE Ls Rs
Sampling rate : 48.0 kHz
Frame rate : 31.250 FPS (1536 SPF)
Compression mode : Lossy
Stream size : 572 MiB (4%)
Language : English
Service kind : Complete Main
Default : Yes
Alternate group : 1
Complexity index : Not present / 16
Number of dynamic objects : 15
Bed channel count : 1 channel
Bed channel configuration : LFE

Text #1
ID : 3
Format : Timed Text
Codec ID : tx3g
Duration : 1 h 39 min
Bit rate mode : Variable
Bit rate : 85 b/s
Stream size : 62.2 KiB (0%)
Language : English
Forced : No

Text #2
ID : 4
Format : Timed Text
Codec ID : tx3g
Duration : 1 h 42 min
Bit rate mode : Variable
Bit rate : 94 b/s
Stream size : 70.3 KiB (0%)
Title : SDH
Language : English
Forced : No

Text #3
ID : 5
Format : Timed Text
Codec ID : tx3g
Duration : 1 h 44 min
Bit rate mode : Variable
Bit rate : 131 b/s
Stream size : 99.5 KiB (0%)
Title : European
Language : Spanish
Forced : No

Text #4
ID : 6
Format : Timed Text
Codec ID : tx3g
Duration : 1 h 44 min
Bit rate mode : Variable
Bit rate : 131 b/s
Stream size : 100.0 KiB (0%)
Language : Danish
Forced : No

Text #5
ID : 7
Format : Timed Text
Codec ID : tx3g
Duration : 1 h 43 min
Bit rate mode : Variable
Bit rate : 133 b/s
Stream size : 101 KiB (0%)
Title : Latin American
Language : Spanish
Forced : No

Text #6
ID : 8
Format : Timed Text
Codec ID : tx3g
Duration : 1 h 44 min
Bit rate mode : Variable
Bit rate : 126 b/s
Stream size : 95.7 KiB (0%)
Language : Croatian
Forced : No

Text #7
ID : 9
Format : Timed Text
Codec ID : tx3g
Duration : 1 h 44 min
Bit rate mode : Variable
Bit rate : 131 b/s
Stream size : 100 KiB (0%)
Language : Hungarian
Forced : No

Text #8
ID : 10
Format : Timed Text
Codec ID : tx3g
Duration : 1 h 44 min
Bit rate mode : Variable
Bit rate : 185 b/s
Stream size : 141 KiB (0%)
Language : Macedonian
Forced : No
资源速度为零或资源敏感被和谐时,推荐使用qBittorrent等下载软件,有条件的推荐115更好的下载软件!

游客,如果您要查看本帖隐藏内容请回复

游客,如果您要查看本帖隐藏内容请回复

游客,如果您要查看本帖隐藏内容请回复





上一篇:骑师 / Jockey (2021) 4K高清版本下载
下一篇:我仍然相信 / I Still Believe (2020) 4K高清版本下载
回复

使用道具 举报

53

主题

1235

帖子

3773

积分

4K家园VIP

Rank: 9Rank: 9Rank: 9

积分
3773
发表于 2022-3-31 19:42:50 | 显示全部楼层
垃圾
回复 支持 反对

使用道具 举报

0

主题

11

帖子

45

积分

新手上路

Rank: 1

积分
45
发表于 2022-3-31 20:57:28 | 显示全部楼层
学习
回复

使用道具 举报

0

主题

8230

帖子

1万

积分

4K家园VIP

Rank: 9Rank: 9Rank: 9

积分
18830
发表于 2022-3-31 22:43:56 | 显示全部楼层
太好啦&萬分感謝版主的無私發佈分享%
回复 支持 反对

使用道具 举报

0

主题

1

帖子

12

积分

新手上路

Rank: 1

积分
12
发表于 2022-4-7 19:53:05 | 显示全部楼层

Love

Vsem Dobra i horohsego  nastroenia. Vsem budet horosho !!!
回复 支持 反对

使用道具 举报

0

主题

1

帖子

6

积分

新手上路

Rank: 1

积分
6
发表于 2022-4-15 19:18:22 | 显示全部楼层

太好啦&萬分感謝版主的無私發佈分享%
回复 支持 反对

使用道具 举报

53

主题

1528

帖子

4424

积分

4K家园VIP

Rank: 9Rank: 9Rank: 9

积分
4424
发表于 2022-4-22 20:08:18 | 显示全部楼层
试试先,好用再说
回复 支持 反对

使用道具 举报

62

主题

1597

帖子

4627

积分

4K家园VIP

Rank: 9Rank: 9Rank: 9

积分
4627
发表于 2022-5-5 02:24:05 | 显示全部楼层
垃圾内容,路过为证。
回复 支持 反对

使用道具 举报

57

主题

1537

帖子

4469

积分

4K家园VIP

Rank: 9Rank: 9Rank: 9

积分
4469
发表于 2022-5-5 23:54:07 来自手机 | 显示全部楼层
LZ敢整点更有创意的不?兄弟们等着围观捏~
回复 支持 反对

使用道具 举报

55

主题

1606

帖子

4634

积分

4K家园VIP

Rank: 9Rank: 9Rank: 9

积分
4634
发表于 2022-5-7 14:31:18 | 显示全部楼层
呵呵。。。
回复 支持 反对

使用道具 举报

您需要登录后才可以回帖 登录 | 立即注册

本版积分规则

精彩图文
Archiver|手机版|TAG|Sitemap|新帖|专题|联系我们:邮箱: 4kjia.com@gmail.com   

4k家园   ©2019