[4K电影] 我仍然相信 / I Still Believe (2020) 4K高清版本下载

[复制链接]

1733

主题

1866

帖子

1万

积分

超级版主

Rank: 8Rank: 8

积分
14095
 楼主| 发表于 2022-3-31 19:58:14 | 显示全部楼层 |阅读模式

QQ图片20220331195507_副本.png

◎译  名 我仍然相信 / 依然相信(台) / 信念依存
◎片  名 I Still Believe
◎年  代 2020
◎产  地 美国
◎类  别 剧情 / 爱情 / 音乐
◎语  言 英语
◎上映日期 2020-03-13(美国)
◎IMDb评分  6.5/10 from 11354 users
◎IMDb链接  https://www.imdb.com/title/tt9779516
◎豆瓣评分 6.7/10 from 1905 users
◎豆瓣链接 https://movie.douban.com/subject/34802738/
◎片  长 115分钟
◎导  演 安德鲁·欧文 Andrew Erwin / 乔恩·欧文 Jon Erwin
◎编  剧 乔恩·欧文 Jon Erwin / 乔·戈恩 Jon Gunn
◎主  演 布丽特·罗伯森 Britt Robertson
       K·J·阿帕 K.J. Apa
       梅丽莎·罗斯伯格 Melissa Roxburgh
       阿比盖尔·F·考恩 Abigail F. Cowen
       加里·西尼斯 Gary Sinise
       内森·帕森斯 Nathan Parsons
       仙妮娅·唐恩 Shania Twain
       鲁本·多德 Reuben Dodd
       卡梅伦·阿内特 Cameron Arnett
       塔妮娅·克里斯汀森 Tanya Christiansen
       谢·杜伊特 Sheé Dueitt
       尼古拉斯·G·西姆斯 Nicholas G. Sims
       艾莉莎·冈萨雷斯 Alyssa Gonzalez
       格里芬·胡德 Griffin Hood



◎简  介  

  讲述了基督教音乐明星杰里米·坎普的真实生活故事和他爱与失去的旅程,这似乎证明了永远都有希望。

Video
ID : 1
Format : HEVC
Format/Info : High Efficiency Video Coding
Format profile : Main 10@L5@Main
HDR format : SMPTE ST 2094 App 4, Version 1, HDR10+ Profile B compatible
Codec ID : V_MPEGH/ISO/HEVC
Duration : 1 h 56 min
Bit rate : 14.9 Mb/s
Width : 3 840 pixels
Height : 1 600 pixels
Display aspect ratio : 2.40:1
Frame rate mode : Constant
Frame rate : 23.976 (24000/1001) FPS
Color space : YUV
Chroma subsampling : 4:2:0
Bit depth : 10 bits
Bits/(Pixel*Frame) : 0.101
Stream size : 12.2 GiB (62%)
Default : Yes
Forced : No
Color range : Limited
Color primaries : BT.2020
Transfer characteristics : PQ
Matrix coefficients : BT.2020 non-constant
Mastering display color primaries : Display P3
Mastering display luminance : min: 0.0050 cd/m2, max: 1000 cd/m2
Maximum Content Light Level : 811 cd/m2
Maximum Frame-Average Light Level : 174 cd/m2

Audio #1
ID : 2
Format : MLP FBA 16-ch
Format/Info : Meridian Lossless Packing FBA with 16-channel presentation
Commercial name : Dolby TrueHD with Dolby Atmos
Codec ID : A_TRUEHD
Duration : 1 h 56 min
Bit rate mode : Variable
Bit rate : 3 943 kb/s
Maximum bit rate : 6 753 kb/s
Channel(s) : 8 channels
Channel layout : L R C LFE Ls Rs Lb Rb
Sampling rate : 48.0 kHz
Frame rate : 1 200.000 FPS (40 SPF)
Compression mode : Lossless
Delay relative to video : 5 s 960 ms
Stream size : 3.21 GiB (16%)
Title : TrueHD 7.1 Atmos
Language : English
Default : Yes
Forced : No
Number of dynamic objects : 11
Bed channel count : 1 channel
Bed channel configuration : LFE

Audio #2
ID : 3
Format : DTS XLL
Format/Info : Digital Theater Systems
Commercial name : DTS-HD Master Audio
Codec ID : A_DTS
Duration : 1 h 56 min
Bit rate mode : Variable
Bit rate : 3 932 kb/s
Channel(s) : 8 channels
Channel layout : C L R LFE Lb Rb Lss Rss
Sampling rate : 48.0 kHz
Frame rate : 93.750 FPS (512 SPF)
Bit depth : 24 bits
Compression mode : Lossless
Delay relative to video : 5 s 960 ms
Stream size : 3.20 GiB (16%)
Title : DTS-HD MA 7.1
Language : English
Default : No
Forced : No

Audio #3
ID : 4
Format : AC-3
Format/Info : Audio Coding 3
Commercial name : Dolby Digital
Codec ID : A_AC3
Duration : 1 h 56 min
Bit rate mode : Constant
Bit rate : 448 kb/s
Channel(s) : 6 channels
Channel layout : L R C LFE Ls Rs
Sampling rate : 48.0 kHz
Frame rate : 31.250 FPS (1536 SPF)
Compression mode : Lossy
Delay relative to video : 5 s 960 ms
Stream size : 373 MiB (2%)
Title : DD 5.1
Language : English
Service kind : Complete Main
Default : No
Forced : No

Audio #4
ID : 5
Format : E-AC-3
Format/Info : Enhanced AC-3
Commercial name : Dolby Digital Plus
Codec ID : A_EAC3
Duration : 1 h 56 min
Bit rate mode : Constant
Bit rate : 640 kb/s
Channel(s) : 6 channels
Channel layout : L R C LFE Ls Rs
Sampling rate : 48.0 kHz
Frame rate : 31.250 FPS (1536 SPF)
Compression mode : Lossy
Stream size : 534 MiB (3%)
Title : DDP 5.1 Atmos
Language : English
Service kind : Complete Main
Default : No
Forced : No


资源速度为零或资源敏感被和谐时,推荐使用qBittorrent等下载软件,有条件的推荐115更好的下载软件!

游客,如果您要查看本帖隐藏内容请回复

游客,如果您要查看本帖隐藏内容请回复

游客,如果您要查看本帖隐藏内容请回复

游客,如果您要查看本帖隐藏内容请回复


以下为以往链接
游客,如果您要查看本帖隐藏内容请回复




上一篇:登月计划 / Moonshot (2022) 4K高清版本下载
下一篇:西部明星(内封中字)/ Western Stars (2019) 4K高清版本下载
回复

使用道具 举报

3

主题

1295

帖子

3907

积分

4K家园VIP

Rank: 9Rank: 9Rank: 9

积分
3907
发表于 2022-3-31 19:58:18 | 显示全部楼层
体验下4K版的
回复 支持 反对

使用道具 举报

0

主题

1390

帖子

4032

积分

4K家园VIP

Rank: 9Rank: 9Rank: 9

积分
4032
发表于 2022-4-12 16:56:37 | 显示全部楼层
楼猪辛苦了,支持一下分享好资源
回复 支持 反对

使用道具 举报

39

主题

1527

帖子

4375

积分

4K家园VIP

Rank: 9Rank: 9Rank: 9

积分
4375
发表于 2022-4-18 21:55:20 来自手机 | 显示全部楼层
看起来好像不错的样子
回复 支持 反对

使用道具 举报

0

主题

1333

帖子

4027

积分

4K家园VIP

Rank: 9Rank: 9Rank: 9

积分
4027
发表于 2022-4-20 07:16:43 | 显示全部楼层
什么东西啊
回复 支持 反对

使用道具 举报

3

主题

1384

帖子

3984

积分

4K家园VIP

Rank: 9Rank: 9Rank: 9

积分
3984
发表于 2022-4-26 09:53:47 来自手机 | 显示全部楼层
回个帖子,下班咯~
回复 支持 反对

使用道具 举报

您需要登录后才可以回帖 登录 | 立即注册

本版积分规则

精彩图文
Archiver|手机版|TAG|Sitemap|新帖|专题|联系我们:邮箱: 4kjia.com@gmail.com   

4k家园   ©2019