[4K电影] 耐撕侦探 / The Nice Guys (2016) 4K高清版本下载

[复制链接]

1701

主题

1834

帖子

1万

积分

超级版主

Rank: 8Rank: 8

积分
13887
 楼主| 发表于 2022-4-3 20:54:01 | 显示全部楼层 |阅读模式

190825d22z7pzddatil32g.jpg

◎译  名 耐撕侦探 / 假会征信社(台) / 好人 / 好伙计们 / 好好侦探 / 好家伙们 / 黐筋双响炮(港)
◎片  名 The Nice Guys
◎年  代 2016
◎产  地 美国 / 英国
◎类  别 喜剧 / 动作 / 犯罪
◎语  言 英语
◎上映日期 2016-05-20(美国)
◎IMDb评分  7.4/10 from 311134 users
◎IMDb链接  https://www.imdb.com/title/tt3799694
◎豆瓣评分 7.0/10 from 33185 users
◎豆瓣链接 https://movie.douban.com/subject/25917787/
◎片  长 116分钟
◎导  演 沙恩·布莱克 Shane Black
◎编  剧 沙恩·布莱克 Shane Black / 安东尼·巴格罗兹 Anthony Bagarozzi
◎主  演 罗素·克劳 Russell Crowe
       瑞恩·高斯林 Ryan Gosling
       安格瑞·瑞思 Angourie Rice
       马特·波莫 Matt Bomer
       玛格丽特 库利 Margaret Qualley
       亚雅·达科斯塔 Yaya DaCosta
       凯斯·大卫 Keith David
       博·纳普 Beau Knapp
       罗伊丝·史密斯 Lois Smith
       Murielle Telio
       Gil Gerard
       黛西·塔汉 Daisy Tahan
       金·贝辛格 Kim Basinger
       杰克·基默 Jack Kilmer


◎简  介


  《好好侦探》发生在上世纪70年代的洛杉矶,倒霉的私家侦探霍兰德·马奇(瑞恩·高斯林[Ryan Gosling]饰)和雇佣来的打手杰克逊·希利(罗素·克劳[Russell Crowe]饰)必须要联手解决一件少女失踪案和一件看似与其无关的艳星死亡案。在调查的过程中,他们发现了一个涉及最高权力层的惊天阴谋。

◎获奖情况

  第22届美国评论家选择电影奖(2017)
  最佳喜剧片(提名)
  喜剧片最佳男主角(提名) 瑞恩·高斯林

Video
ID : 1
Format : HEVC
Format/Info : High Efficiency Video Coding
Format profile : Main 10@L5@High
HDR format : SMPTE ST 2086, HDR10 compatible
Codec ID : V_MPEGH/ISO/HEVC
Duration : 1 h 55 min
Bit rate : 14.4 Mb/s
Width : 3 840 pixels
Height : 1 600 pixels
Display aspect ratio : 2.40:1
Frame rate mode : Constant
Frame rate : 23.976 FPS
Color space : YUV
Chroma subsampling : 4:2:0 (Type 2)
Bit depth : 10 bits
Bits/(Pixel*Frame) : 0.098
Stream size : 11.6 GiB (78%)
Default : Yes
Forced : No
Color range : Limited
Color primaries : BT.2020
Transfer characteristics : PQ
Matrix coefficients : BT.2020 non-constant
Mastering display color primaries : BT.2020
Mastering display luminance : min: 0.0050 cd/m2, max: 1000 cd/m2
Maximum Content Light Level : 1238 cd/m2
Maximum Frame-Average Light Level : 816 cd/m2

Audio #1
ID : 2
Format : DTS XLL
Format/Info : Digital Theater Systems
Commercial name : DTS-HD Master Audio
Codec ID : A_DTS
Duration : 1 h 55 min
Bit rate mode : Variable
Bit rate : 3 722 kb/s
Channel(s) : 6 channels
Channel layout : C L R Ls Rs LFE
Sampling rate : 48.0 kHz
Frame rate : 93.750 FPS (512 SPF)
Bit depth : 24 bits
Compression mode : Lossless
Delay relative to video : 4 ms
Stream size : 3.01 GiB (20%)
Title : DTS-HD MA 5.1
Language : English
Default : Yes
Forced : No

Audio #2
ID : 3
Format : AC-3
Format/Info : Audio Coding 3
Commercial name : Dolby Digital
Codec ID : A_AC3
Duration : 1 h 55 min
Bit rate mode : Constant
Bit rate : 384 kb/s
Channel(s) : 6 channels
Channel layout : L R C LFE Ls Rs
Sampling rate : 48.0 kHz
Frame rate : 31.250 FPS (1536 SPF)
Compression mode : Lossy
Stream size : 318 MiB (2%)
Title : DD 5.1
Language : English
Service kind : Complete Main
Default : No
Forced : No

Text #1
ID : 4
Format : UTF-8
Codec ID : S_TEXT/UTF8
Codec ID/Info : UTF-8 Plain Text
Duration : 1 h 50 min
Bit rate : 79 b/s
Count of elements : 2236
Stream size : 64.0 KiB (0%)
Title : English CC
Language : English
Default : No
Forced : No

Text #2
ID : 5
Format : UTF-8
Codec ID : S_TEXT/UTF8
Codec ID/Info : UTF-8 Plain Text
Duration : 1 h 54 min
Bit rate : 65 b/s
Count of elements : 1919
Stream size : 55.0 KiB (0%)
Title : Spanish Latin American
Language : Spanish
Default : No
Forced : No

Text #3
ID : 6
Format : UTF-8
Codec ID : S_TEXT/UTF8
Codec ID/Info : UTF-8 Plain Text
Duration : 1 h 54 min
Bit rate : 61 b/s
Count of elements : 1918
Stream size : 51.9 KiB (0%)
Title : French Canadian
Language : French
Default : No
Forced : No

Text #4
ID : 7
Format : PGS
Muxing mode : zlib
Codec ID : S_HDMV/PGS
Codec ID/Info : Picture based subtitle format used on BDs/HD-DVDs
Duration : 1 h 55 min
Bit rate : 46.3 kb/s
Count of elements : 4232
Stream size : 38.4 MiB (0%)
Title : English (SDH)
Language : English
Default : No
Forced : No

Text #5
ID : 8
Format : PGS
Muxing mode : zlib
Codec ID : S_HDMV/PGS
Codec ID/Info : Picture based subtitle format used on BDs/HD-DVDs
Duration : 1 h 54 min
Bit rate : 35.3 kb/s
Count of elements : 3838
Stream size : 29.0 MiB (0%)
Title : French
Language : French
Default : No
Forced : No

Text #6
ID : 9
Format : PGS
Muxing mode : zlib
Codec ID : S_HDMV/PGS
Codec ID/Info : Picture based subtitle format used on BDs/HD-DVDs
Duration : 1 h 55 min
Bit rate : 38.8 kb/s
Count of elements : 3840
Stream size : 31.9 MiB (0%)
Title : Spanish
Language : Spanish
Default : No
Forced : No

Menu
00:00:00.000 : en:Chapter 01
00:10:41.000 : en:Chapter 02
00:21:06.000 : en:Chapter 03
00:29:12.000 : en:Chapter 04
00:40:12.000 : en:Chapter 05
00:50:49.000 : en:Chapter 06
01:01:01.000 : en:Chapter 07
01:10:14.000 : en:Chapter 08
01:19:58.000 : en:Chapter 09
01:29:40.000 : en:Chapter 10
01:40:09.000 : en:Chapter 11
01:48:35.000 : en:Chapter 12


资源速度为零或资源敏感被和谐时,推荐使用qBittorrent等下载软件,有条件的推荐115更好的下载软件!

下载地址:

游客,如果您要查看本帖隐藏内容请回复

游客,如果您要查看本帖隐藏内容请回复

游客,如果您要查看本帖隐藏内容请回复

游客,如果您要查看本帖隐藏内容请回复




上一篇:克里斯托弗·罗宾 / Christopher Robin (2018) 4K高清版本下载
下一篇:星际旅行1:无限太空 (1979) 4K高清版本下载
回复

使用道具 举报

4

主题

1234

帖子

3734

积分

4K家园VIP

Rank: 9Rank: 9Rank: 9

积分
3734
发表于 2022-4-3 20:54:30 | 显示全部楼层
试试看吧
回复 支持 反对

使用道具 举报

0

主题

8229

帖子

1万

积分

4K家园VIP

Rank: 9Rank: 9Rank: 9

积分
18809
发表于 2022-4-3 21:09:21 | 显示全部楼层
太好啦&萬分感謝版主的無私發佈分享%
回复 支持 反对

使用道具 举报

47

主题

1474

帖子

4216

积分

4K家园VIP

Rank: 9Rank: 9Rank: 9

积分
4216
发表于 2022-4-5 04:54:52 来自手机 | 显示全部楼层
正需要
回复 支持 反对

使用道具 举报

3

主题

1331

帖子

4019

积分

4K家园VIP

Rank: 9Rank: 9Rank: 9

积分
4019
发表于 2022-4-11 03:58:56 | 显示全部楼层
4K家园资源不错,前排支持
回复 支持 反对

使用道具 举报

45

主题

1475

帖子

4273

积分

4K家园VIP

Rank: 9Rank: 9Rank: 9

积分
4273
发表于 2022-4-19 16:43:33 来自手机 | 显示全部楼层
佩服佩服!
回复 支持 反对

使用道具 举报

1

主题

1626

帖子

4452

积分

4K家园VIP

Rank: 9Rank: 9Rank: 9

积分
4452
发表于 2022-4-22 17:23:45 | 显示全部楼层
沙发???
回复 支持 反对

使用道具 举报

您需要登录后才可以回帖 登录 | 立即注册

本版积分规则

精彩图文
Archiver|手机版|TAG|Sitemap|新帖|专题|联系我们:邮箱: 4kjia.com@gmail.com   

4k家园   ©2019