[4K电影] 母亲 Umma (2022) 4K高清版本下载

[复制链接]

1735

主题

1868

帖子

1万

积分

超级版主

Rank: 8Rank: 8

积分
14105
 楼主| 发表于 2022-4-8 17:16:51 | 显示全部楼层 |阅读模式

p2869068161.webp_副本.jpg


◎译  名 母亲
◎片  名 Umma
◎年  代 2022
◎产  地 美国
◎类  别 恐怖
◎语  言 英语
◎上映日期 2022-03-18(美国)
◎IMDb链接 https://www.imdb.com/title/tt13235822/
◎豆瓣链接 https://movie.douban.com/subject/35215485/
◎片  长 83分钟
◎导  演 艾瑞斯·K·沈 Iris K. Shim
◎编  剧 艾瑞斯·K·沈 Iris K. Shim
◎演  员 吴珊卓 Sandra Oh
      德蒙特·莫罗尼 Dermot Mulroney
      奥德娅·拉什 Odeya Rush
      菲韦尔·斯图尔特 Fivel Stewart
      汤姆·易 Tom Yi
      米瓦·阿拉娜·李 MeeWha Alana Lee
      丹妮尔·K·戈尔登 Danielle K. Golden
      哈娜·玛丽·金 Hana Marie Kim
      马克·柯克西 Mark Kirksey
      莉亚·巴特勒 Leah Butler

◎简  介

  Umma即韩语母亲的意思,故事聚焦阿曼达(吴珊卓 饰)和她的女儿在美国农场过着平静的生活,但当她早已疏远的母亲的遗体从韩国运抵美国时,阿曼达因害怕变成自己的母亲而产生困扰。
Video
ID : 1
Format : HEVC
Format/Info : High Efficiency Video Coding
Format profile : Main 10@L5@High
Codec ID : V_MPEGH/ISO/HEVC
Duration : 1 h 23 min
Bit rate : 11.9 Mb/s
Width : 3 840 pixels
Height : 1 580 pixels
Display aspect ratio : 2.40:1
Frame rate mode : Constant
Frame rate : 23.976 FPS
Color space : YUV
Chroma subsampling : 4:2:0
Bit depth : 10 bits
Bits/(Pixel*Frame) : 0.082
Stream size : 6.93 GiB (95%)
Default : Yes
Forced : No
Color range : Limited
Color primaries : BT.709
Transfer characteristics : BT.709
Matrix coefficients : BT.709

Audio
ID : 2
Format : E-AC-3
Format/Info : Enhanced AC-3
Commercial name : Dolby Digital Plus
Codec ID : A_EAC3
Duration : 1 h 23 min
Bit rate mode : Constant
Bit rate : 640 kb/s
Channel(s) : 6 channels
Channel layout : L R C LFE Ls Rs
Sampling rate : 48.0 kHz
Frame rate : 31.250 FPS (1536 SPF)
Compression mode : Lossy
Stream size : 382 MiB (5%)
Title : English
Language : English
Service kind : Complete Main
Default : No
Forced : No

Text #1
ID : 3
Format : UTF-8
Codec ID : S_TEXT/UTF8
Codec ID/Info : UTF-8 Plain Text
Duration : 1 h 12 min
Bit rate : 7 b/s
Count of elements : 145
Stream size : 4.09 KiB (0%)
Title : FORCED
Language : English
Default : No
Forced : Yes

Text #2
ID : 4
Format : UTF-8
Codec ID : S_TEXT/UTF8
Codec ID/Info : UTF-8 Plain Text
Duration : 1 h 15 min
Bit rate : 31 b/s
Count of elements : 680
Stream size : 17.2 KiB (0%)
Language : English
Default : Yes
Forced : No
下载地址:


游客,如果您要查看本帖隐藏内容请回复









上一篇:特工游戏 Agent Game (2022) 4K高清版本下载
下一篇:奶牛 / Cow (2021) 4K高清版本下载
回复

使用道具 举报

3

主题

1344

帖子

4056

积分

4K家园VIP

Rank: 9Rank: 9Rank: 9

积分
4056
发表于 2022-4-8 17:16:55 来自手机 | 显示全部楼层
LZ帖子不给力,勉强给回复下吧
回复 支持 反对

使用道具 举报

0

主题

45

帖子

508

积分

4K家园VIP

Rank: 9Rank: 9Rank: 9

积分
508
QQ
发表于 2022-4-8 20:45:06 | 显示全部楼层

LZ帖子不给力,勉强给回复下吧
回复 支持 反对

使用道具 举报

0

主题

714

帖子

2510

积分

注册会员

Rank: 2

积分
2510
发表于 2022-4-9 22:01:54 | 显示全部楼层
谢谢楼主分享
回复 支持 反对

使用道具 举报

2

主题

1158

帖子

3492

积分

4K家园VIP

Rank: 9Rank: 9Rank: 9

积分
3492
发表于 2022-4-10 15:19:02 | 显示全部楼层
高手云集 果断围观
回复 支持 反对

使用道具 举报

1

主题

1391

帖子

4021

积分

4K家园VIP

Rank: 9Rank: 9Rank: 9

积分
4021
发表于 2022-4-10 15:40:46 | 显示全部楼层
专业抢沙发的!哈哈
回复 支持 反对

使用道具 举报

0

主题

22

帖子

208

积分

新手上路

Rank: 1

积分
208
发表于 2022-4-12 00:07:35 | 显示全部楼层
谢谢分享5555555
回复 支持 反对

使用道具 举报

2

主题

1305

帖子

3933

积分

4K家园VIP

Rank: 9Rank: 9Rank: 9

积分
3933
发表于 2022-4-12 04:00:28 | 显示全部楼层
支持一下楼主发表的内容
回复 支持 反对

使用道具 举报

1

主题

1339

帖子

4033

积分

4K家园VIP

Rank: 9Rank: 9Rank: 9

积分
4033
发表于 2022-4-13 02:04:27 | 显示全部楼层
呵呵。。。
回复 支持 反对

使用道具 举报

0

主题

3

帖子

18

积分

新手上路

Rank: 1

积分
18
发表于 2022-4-13 12:57:26 | 显示全部楼层
好资源,顶
回复

使用道具 举报

您需要登录后才可以回帖 登录 | 立即注册

本版积分规则

精彩图文
Archiver|手机版|TAG|Sitemap|新帖|专题|联系我们:邮箱: 4kjia.com@gmail.com   

4k家园   ©2019