[4Kjia独享4K资源] 母亲儿子老鼠和枪 (2022) 4K高清版本下载

[复制链接]

1733

主题

1866

帖子

1万

积分

超级版主

Rank: 8Rank: 8

积分
14095
 楼主| 发表于 2022-4-11 11:29:13 | 显示全部楼层 |阅读模式
本帖最后由 最爱4K哟 于 2022-4-12 12:13 编辑

QQ图片20220411111247_副本.png

◎译  名 母亲儿子老鼠和枪
◎片  名 The.Mother.the.Son.the.Rat.and.the.Gun
◎年  代 2022
◎产  地 美国
◎类  别 犯罪 / 惊悚
◎语  言 英语
◎上映日期 2022-04-08(美国网络)
◎IMDb评分  0/10 from 0 users
◎IMDb链接  https://www.imdb.com/title /tt7996036
◎导  演 菲利普·斯塔尔
◎编  剧 帕特里克克莱文 / 菲利普·斯塔尔
◎主  演 查布里斯·纳皮尔-劳伦斯
                    马克弗莱彻
                    奥利弗·德沃蒂
                    斯蒂芬·奥斯瓦尔德
                    威廉欧文
                    巴黎斯坦格尔
                    沃伦·拉瑟
                    安德鲁·默顿
                    玛丽康伦
                    韦恩·麦克斯韦


◎简  介


        持枪歹徒、无法无天的律师和背后捅刀子的混蛋。中间有一个家庭,虽然有些人试图维持下去,但其他人却想把它拆散。
Video
ID                             : 1
Format                         : HEVC
Format/Info                    : High Efficiency Video Coding
Format profile                 : Main 10@L5@High
Codec ID                       : V_MPEGH/ISO/HEVC
Duration                       : 1 h 55 min
Bit rate                       : 20.3 Mb/s
Width                          : 3 840 pixels
Height                         : 2 026 pixels
Display aspect ratio           : 1.895
Frame rate mode                : Constant
Frame rate                     : 25.000 FPS
Color space                    : YUV
Chroma subsampling             : 4:2:0
Bit depth                      : 10 bits
Bits/(Pixel*Frame)             : 0.104
Stream size                    : 16.3 GiB (96%)
Default                        : Yes
Forced                         : No
Color range                    : Limited
Color primaries                : BT.709
Transfer characteristics       : BT.709
Matrix coefficients            : BT.709

Audio
ID                             : 2
Format                         : AC-3
Format/Info                    : Audio Coding 3
Commercial name                : Dolby Digital
Codec ID                       : A_AC3
Duration                       : 1 h 55 min
Bit rate mode                  : Constant
Bit rate                       : 384 kb/s
Channel(s)                     : 6 channels
Channel layout                 : L R C LFE Ls Rs
Sampling rate                  : 48.0 kHz
Frame rate                     : 31.250 FPS (1536 SPF)
Compression mode               : Lossy
Stream size                    : 316 MiB (2%)
Title                          : British
Language                       : English
Service kind                   : Complete Main
Default                        : Yes
Forced                         : No

迅雷下载资源速度为零或资源敏感被和谐时,推荐使用qBittorrent等下载软件,有条件的推荐115更好的下载软件!

下载地址:

游客,如果您要查看本帖隐藏内容请回复

游客,如果您要查看本帖隐藏内容请回复




上一篇:奶牛 / Cow (2021) 4K高清版本下载
下一篇:世界末日 / This is the End (2013) 4K高清版本下载
回复

使用道具 举报

6

主题

1432

帖子

4172

积分

中级会员

Rank: 4

积分
4172
发表于 2022-4-11 11:29:22 | 显示全部楼层
4K版的应该更清晰吧
回复 支持 反对

使用道具 举报

0

主题

8230

帖子

1万

积分

4K家园VIP

Rank: 9Rank: 9Rank: 9

积分
18830
发表于 2022-4-11 11:43:51 | 显示全部楼层
太好啦&萬分感謝版主的無私發佈分享%
回复 支持 反对

使用道具 举报

4

主题

1326

帖子

3998

积分

4K家园VIP

Rank: 9Rank: 9Rank: 9

积分
3998
发表于 2022-4-13 06:36:16 | 显示全部楼层
我只是路过,不发表意见
回复 支持 反对

使用道具 举报

1

主题

1262

帖子

3802

积分

4K家园VIP

Rank: 9Rank: 9Rank: 9

积分
3802
发表于 2022-4-13 06:45:28 | 显示全部楼层
学习下
回复 支持 反对

使用道具 举报

14

主题

1236

帖子

3698

积分

4K家园VIP

Rank: 9Rank: 9Rank: 9

积分
3698
发表于 2022-4-13 11:40:04 | 显示全部楼层
回复 支持 反对

使用道具 举报

0

主题

1183

帖子

3563

积分

4K家园VIP

Rank: 9Rank: 9Rank: 9

积分
3563
发表于 2022-4-14 09:02:11 | 显示全部楼层
支持下楼主,顶一个
回复 支持 反对

使用道具 举报

0

主题

73

帖子

518

积分

4K家园VIP

Rank: 9Rank: 9Rank: 9

积分
518
发表于 2022-4-16 21:09:05 | 显示全部楼层
让 江小白 来看看帖子里藏了啥好东西~~~
回复 支持 反对

使用道具 举报

0

主题

8230

帖子

1万

积分

4K家园VIP

Rank: 9Rank: 9Rank: 9

积分
18830
发表于 2022-4-23 18:45:25 | 显示全部楼层
太好啦&萬分感謝版主的無私發佈分享%
回复 支持 反对

使用道具 举报

您需要登录后才可以回帖 登录 | 立即注册

本版积分规则

精彩图文
Archiver|手机版|TAG|Sitemap|新帖|专题|联系我们:邮箱: 4kjia.com@gmail.com   

4k家园   ©2019