[4K电影] 世界末日 / This is the End (2013) 4K高清版本下载

[复制链接]

1733

主题

1866

帖子

1万

积分

超级版主

Rank: 8Rank: 8

积分
14095
 楼主| 发表于 2022-4-12 10:44:09 | 显示全部楼层 |阅读模式
QQ图片20220412103654_副本.png

◎译  名 世界末日 / 末世 / 大明星世界末日(台) / 杰伊与塞斯对抗世界末日 / 启示录 / 末世喜剧 / The End Of The World / Apocalypse / Jay and Seth vs. the Apocalpse
◎片  名 This is the End
◎年  代 2013
◎产  地 美国
◎类  别 喜剧 / 奇幻
◎语  言 英语
◎上映日期 2013-06-12(美国)
◎IMDb链接 https://www.imdb.com/title/tt1245492/
◎豆瓣评分 6.8/10 (43471人评价)
◎豆瓣链接 https://movie.douban.com/subject/3104798/
◎片  长 107分钟
◎导  演 塞斯·罗根 Seth Rogen / 埃文·戈德堡 Evan Goldberg
◎编  剧 塞斯·罗根 Seth Rogen / 杰森·斯通 Jason Stone / 埃文·戈德堡 Evan Goldberg / 杰伊·巴鲁切尔 Jay Baruchel
◎演  员 塞斯·罗根 Seth Rogen
      詹姆斯·弗兰科 James Franco
      乔纳·希尔 Jonah Hill
      杰伊·巴鲁切尔 Jay Baruchel
      丹尼·麦克布莱德 Danny McBride
      克雷格·罗宾森 Craig Robinson
      迈克尔·塞拉 Michael Cera
      艾玛·沃森 Emma Watson
      保罗·路德 Paul Rudd
      杰森·席格尔 Jason Segel
      敏迪·卡灵 Mindy Kaling
      蕾哈娜 Rihanna
      大卫·克朗姆霍茨 David Krumholtz
      克里斯托夫·梅兹-普莱瑟 Christopher Mintz-Plasse
      马丁·斯塔尔 Martin Starr
      查宁·塔图姆 Channing Tatum
      阿兹·安萨里 Aziz Ansari
      凯文·哈特 Kevin Hart
      亚历山大·詹姆斯·迈克林 A.J. McLean
      凯文·斯科特·理查德森 Kevin Scott Richardson
      布莱恩·利特尔 Brian Littrell
      道格拉斯·M·格里芬 Douglas M. Griffin
      劳伦·格拉汉姆 Lauren Graham
      布莱恩·赫斯基 Brian Huskey
      里基·马比 Ricky Mabe
      林慧玲 Rebecca Lim
      郭亮 Liang Guo
      杰森·特罗斯特 Jason Trost
      尼克·卡特 Nick Carter
      霍伊·多罗夫 Howie Dorough
      詹姆斯·韦弗 James Weaver
      亨利·杰克曼 Henry Jackman
      赛德·瓦尔德 Syd Wilder

◎简  介

  杰伊(杰伊·巴鲁切尔 Jay Baruchel 饰)千里迢迢来到洛杉矶,希望能和好友塞斯(塞斯·罗根 Seth Rogen 饰)共度一段美好的时光,可是,没过多久,杰伊便发现,塞斯和自己不同,早已经在洛杉矶结识了一大帮新朋友的他并不如自己一般感到寂寞。
在半推半就下,杰伊跟随塞斯加入了在詹姆斯(詹姆斯·弗兰科 James Franco 饰)家举行的一场疯狂派对,对于疯疯癫癫狂妄自大的詹姆斯,杰伊十分反感,但很显然,詹姆斯和塞斯之间的关系十分亲密。一场灾难的降临让世界陷入了一片火海,与此同时,在豪宅里狂欢的众人对此还一无所知。这一切究竟是天灾还是人祸?被困的杰伊等六人能否绝处逢生呢?

◎获奖情况 (共6项)
  第23届MTV电影奖 (2014)
  MTV电影奖 最佳打斗(提名)
  MTV电影奖 最目瞪口呆场面(提名)
  MTV电影奖 最佳音乐场景(提名)
  MTV电影奖 最佳客串表演(提名)
   └──蕾哈娜 (id:1031180)

  第19届美国评论家选择电影奖 (2014)
  最佳喜剧片(提名)

  第4届豆瓣电影鑫像奖 (2014)
  鑫豆单元 最佳喜剧片
Video
ID : 1
Format : HEVC
Format/Info : High Efficiency Video Coding
Format profile : Main 10@L5@High
Codec ID : V_MPEGH/ISO/HEVC
Duration : 1 h 46 min
Bit rate : 11.9 Mb/s
Width : 3 838 pixels
Height : 1 606 pixels
Display aspect ratio : 2.40:1
Frame rate mode : Constant
Frame rate : 23.976 FPS
Color space : YUV
Chroma subsampling : 4:2:0
Bit depth : 10 bits
Bits/(Pixel*Frame) : 0.080
Stream size : 8.84 GiB (80%)
Default : Yes
Forced : No
Color range : Limited
Color primaries : BT.709
Transfer characteristics : BT.709
Matrix coefficients : BT.709

Audio #1
ID : 2
ID in the original source medium : 4352 (0x1100)
Format : DTS XLL
Format/Info : Digital Theater Systems
Commercial name : DTS-HD Master Audio
Codec ID : A_DTS
Duration : 1 h 46 min
Bit rate mode : Variable
Bit rate : 2 255 kb/s
Channel(s) : 6 channels
Channel layout : C L R Ls Rs LFE
Sampling rate : 48.0 kHz
Frame rate : 93.750 FPS (512 SPF)
Bit depth : 16 bits
Compression mode : Lossless
Stream size : 1.68 GiB (15%)
Title : DTS-HD MA 5.1
Language : English
Default : Yes
Forced : No
Original source medium : Blu-ray

Audio #2
ID : 3
Format : AC-3
Format/Info : Audio Coding 3
Commercial name : Dolby Digital
Codec ID : A_AC3
Duration : 1 h 46 min
Bit rate mode : Constant
Bit rate : 384 kb/s
Channel(s) : 6 channels
Channel layout : L R C LFE Ls Rs
Sampling rate : 48.0 kHz
Frame rate : 31.250 FPS (1536 SPF)
Compression mode : Lossy
Stream size : 293 MiB (3%)
Title : DD 5.1
Language : English
Service kind : Complete Main
Default : No
Forced : No

Text #1
ID : 4
ID in the original source medium : 4608 (0x1200)
Format : PGS
Muxing mode : zlib
Codec ID : S_HDMV/PGS
Codec ID/Info : Picture based subtitle format used on BDs/HD-DVDs
Duration : 1 h 38 min
Bit rate : 61.7 kb/s
Count of elements : 4116
Stream size : 43.5 MiB (0%)
Language : English
Default : No
Forced : No
Original source medium : Blu-ray

Text #2
ID : 5
ID in the original source medium : 4609 (0x1201)
Format : PGS
Muxing mode : zlib
Codec ID : S_HDMV/PGS
Codec ID/Info : Picture based subtitle format used on BDs/HD-DVDs
Duration : 1 h 38 min
Bit rate : 33.6 kb/s
Count of elements : 4136
Stream size : 23.7 MiB (0%)
Language : Arabic
Default : No
Forced : No
Original source medium : Blu-ray

Text #3
ID : 6
ID in the original source medium : 4610 (0x1202)
Format : PGS
Muxing mode : zlib
Codec ID : S_HDMV/PGS
Codec ID/Info : Picture based subtitle format used on BDs/HD-DVDs
Duration : 1 h 40 min
Bit rate : 46.0 kb/s
Count of elements : 3940
Stream size : 32.9 MiB (0%)
Language : Bulgarian
Default : No
Forced : No
Original source medium : Blu-ray

Text #4
ID : 7
ID in the original source medium : 4611 (0x1203)
Format : PGS
Muxing mode : zlib
Codec ID : S_HDMV/PGS
Codec ID/Info : Picture based subtitle format used on BDs/HD-DVDs
Duration : 1 h 38 min
Bit rate : 41.2 kb/s
Count of elements : 3968
Stream size : 29.1 MiB (0%)
Language : Croatian
Default : No
Forced : No
Original source medium : Blu-ray

Text #5
ID : 8
ID in the original source medium : 4612 (0x1204)
Format : PGS
Muxing mode : zlib
Codec ID : S_HDMV/PGS
Codec ID/Info : Picture based subtitle format used on BDs/HD-DVDs
Duration : 1 h 38 min
Bit rate : 51.8 kb/s
Count of elements : 4132
Stream size : 36.5 MiB (0%)
Language : Czech
Default : No
Forced : No
Original source medium : Blu-ray

Text #6
ID : 9
ID in the original source medium : 4612 (0x1204)
Format : PGS
Muxing mode : zlib
Codec ID : S_HDMV/PGS
Codec ID/Info : Picture based subtitle format used on BDs/HD-DVDs
Duration : 1 h 9 min
Bit rate : 1 150 b/s
Count of elements : 60
Stream size : 588 KiB (0%)
Language : Czech
Default : No
Forced : No
Original source medium : Blu-ray

Text #7
ID : 10
ID in the original source medium : 4613 (0x1205)
Format : PGS
Muxing mode : zlib
Codec ID : S_HDMV/PGS
Codec ID/Info : Picture based subtitle format used on BDs/HD-DVDs
Duration : 1 h 40 min
Bit rate : 42.9 kb/s
Count of elements : 3780
Stream size : 30.7 MiB (0%)
Language : Estonian
Default : No
Forced : No
Original source medium : Blu-ray

Text #8
ID : 11
ID in the original source medium : 4614 (0x1206)
Format : PGS
Muxing mode : zlib
Codec ID : S_HDMV/PGS
Codec ID/Info : Picture based subtitle format used on BDs/HD-DVDs
Duration : 1 h 40 min
Bit rate : 51.8 kb/s
Count of elements : 3843
Stream size : 37.0 MiB (0%)
Language : Greek
Default : No
Forced : No
Original source medium : Blu-ray

Text #9
ID : 12
ID in the original source medium : 4615 (0x1207)
Format : PGS
Muxing mode : zlib
Codec ID : S_HDMV/PGS
Codec ID/Info : Picture based subtitle format used on BDs/HD-DVDs
Duration : 1 h 38 min
Bit rate : 40.9 kb/s
Count of elements : 4136
Stream size : 28.9 MiB (0%)
Language : Hebrew
Default : No
Forced : No
Original source medium : Blu-ray

Text #10
ID : 13
ID in the original source medium : 4616 (0x1208)
Format : PGS
Muxing mode : zlib
Codec ID : S_HDMV/PGS
Codec ID/Info : Picture based subtitle format used on BDs/HD-DVDs
Duration : 1 h 38 min
Bit rate : 45.9 kb/s
Count of elements : 4138
Stream size : 32.4 MiB (0%)
Language : Hindi
Default : No
Forced : No
Original source medium : Blu-ray

Text #11
ID : 14
ID in the original source medium : 4617 (0x1209)
Format : PGS
Muxing mode : zlib
Codec ID : S_HDMV/PGS
Codec ID/Info : Picture based subtitle format used on BDs/HD-DVDs
Duration : 1 h 38 min
Bit rate : 56.1 kb/s
Count of elements : 4122
Stream size : 39.6 MiB (0%)
Language : Hungarian
Default : No
Forced : No
Original source medium : Blu-ray

Text #12
ID : 15
ID in the original source medium : 4617 (0x1209)
Format : PGS
Muxing mode : zlib
Codec ID : S_HDMV/PGS
Codec ID/Info : Picture based subtitle format used on BDs/HD-DVDs
Duration : 1 s 189 ms
Bit rate : 163 kb/s
Count of elements : 2
Stream size : 23.7 KiB (0%)
Language : Hungarian
Default : No
Forced : No
Original source medium : Blu-ray

Text #13
ID : 16
ID in the original source medium : 4618 (0x120A)
Format : PGS
Muxing mode : zlib
Codec ID : S_HDMV/PGS
Codec ID/Info : Picture based subtitle format used on BDs/HD-DVDs
Duration : 1 h 38 min
Bit rate : 54.2 kb/s
Count of elements : 3902
Stream size : 38.2 MiB (0%)
Language : Icelandic
Default : No
Forced : No
Original source medium : Blu-ray

Text #14
ID : 17
ID in the original source medium : 4619 (0x120B)
Format : PGS
Muxing mode : zlib
Codec ID : S_HDMV/PGS
Codec ID/Info : Picture based subtitle format used on BDs/HD-DVDs
Duration : 1 h 40 min
Bit rate : 42.5 kb/s
Count of elements : 3964
Stream size : 30.4 MiB (0%)
Language : Latvian
Default : No
Forced : No
Original source medium : Blu-ray

Text #15
ID : 18
ID in the original source medium : 4620 (0x120C)
Format : PGS
Muxing mode : zlib
Codec ID : S_HDMV/PGS
Codec ID/Info : Picture based subtitle format used on BDs/HD-DVDs
Duration : 1 h 38 min
Bit rate : 49.9 kb/s
Count of elements : 3874
Stream size : 35.2 MiB (0%)
Language : Lithuanian
Default : No
Forced : No
Original source medium : Blu-ray

Text #16
ID : 19
ID in the original source medium : 4621 (0x120D)
Format : PGS
Muxing mode : zlib
Codec ID : S_HDMV/PGS
Codec ID/Info : Picture based subtitle format used on BDs/HD-DVDs
Duration : 1 h 40 min
Bit rate : 39.7 kb/s
Count of elements : 3529
Stream size : 28.4 MiB (0%)
Language : Polish
Default : No
Forced : No
Original source medium : Blu-ray

Text #17
ID : 20
ID in the original source medium : 4622 (0x120E)
Format : PGS
Muxing mode : zlib
Codec ID : S_HDMV/PGS
Codec ID/Info : Picture based subtitle format used on BDs/HD-DVDs
Duration : 1 h 40 min
Bit rate : 52.8 kb/s
Count of elements : 4134
Stream size : 37.8 MiB (0%)
Language : Portuguese
Default : No
Forced : No
Original source medium : Blu-ray

Text #18
ID : 21
ID in the original source medium : 4623 (0x120F)
Format : PGS
Muxing mode : zlib
Codec ID : S_HDMV/PGS
Codec ID/Info : Picture based subtitle format used on BDs/HD-DVDs
Duration : 1 h 38 min
Bit rate : 58.1 kb/s
Count of elements : 3788
Stream size : 41.0 MiB (0%)
Language : Russian
Default : No
Forced : No
Original source medium : Blu-ray

Text #19
ID : 22
ID in the original source medium : 4624 (0x1210)
Format : PGS
Muxing mode : zlib
Codec ID : S_HDMV/PGS
Codec ID/Info : Picture based subtitle format used on BDs/HD-DVDs
Duration : 1 h 38 min
Bit rate : 55.9 kb/s
Count of elements : 4130
Stream size : 39.4 MiB (0%)
Language : Slovak
Default : No
Forced : No
Original source medium : Blu-ray

Text #20
ID : 23
ID in the original source medium : 4625 (0x1211)
Format : PGS
Muxing mode : zlib
Codec ID : S_HDMV/PGS
Codec ID/Info : Picture based subtitle format used on BDs/HD-DVDs
Duration : 1 h 38 min
Bit rate : 39.1 kb/s
Count of elements : 3196
Stream size : 27.6 MiB (0%)
Language : Slovenian
Default : No
Forced : No
Original source medium : Blu-ray

Text #21
ID : 24
ID in the original source medium : 4626 (0x1212)
Format : PGS
Muxing mode : zlib
Codec ID : S_HDMV/PGS
Codec ID/Info : Picture based subtitle format used on BDs/HD-DVDs
Duration : 1 h 38 min
Bit rate : 59.2 kb/s
Count of elements : 4132
Stream size : 41.7 MiB (0%)
Language : Turkish
Default : No
Forced : No
Original source medium : Blu-ray

Text #22
ID : 25
ID in the original source medium : 4627 (0x1213)
Format : PGS
Muxing mode : zlib
Codec ID : S_HDMV/PGS
Codec ID/Info : Picture based subtitle format used on BDs/HD-DVDs
Duration : 1 h 38 min
Bit rate : 48.3 kb/s
Count of elements : 3811
Stream size : 34.1 MiB (0%)
Language : Ukrainian
Default : No
Forced : No
Original source medium : Blu-ray

Text #23
ID : 26
ID in the original source medium : 4628 (0x1214)
Format : PGS
Muxing mode : zlib
Codec ID : S_HDMV/PGS
Codec ID/Info : Picture based subtitle format used on BDs/HD-DVDs
Duration : 1 h 41 min
Bit rate : 87.7 kb/s
Count of elements : 4266
Stream size : 63.8 MiB (1%)
Language : English
Default : No
Forced : No
Original source medium : Blu-ray

Text #24
ID : 27
ID in the original source medium : 4629 (0x1215)
Format : PGS
Muxing mode : zlib
Codec ID : S_HDMV/PGS
Codec ID/Info : Picture based subtitle format used on BDs/HD-DVDs
Duration : 1 h 40 min
Bit rate : 50.2 kb/s
Count of elements : 4132
Stream size : 36.0 MiB (0%)
Language : Romanian
Default : No
Forced : No
Original source medium : Blu-ray

Menu
00:00:00.000 : en:Chapter 01
00:05:50.392 : en:Chapter 02
00:12:12.732 : en:Chapter 03
00:17:37.599 : en:Chapter 04
00:23:49.012 : en:Chapter 05
00:29:23.638 : en:Chapter 06
00:38:27.849 : en:Chapter 07
00:44:36.718 : en:Chapter 08
00:49:16.331 : en:Chapter 09
00:59:15.597 : en:Chapter 10
01:06:03.004 : en:Chapter 11
01:12:45.323 : en:Chapter 12
01:19:24.973 : en:Chapter 13
01:26:21.348 : en:Chapter 14
01:33:17.972 : en:Chapter 15
01:37:41.778 : en:Chapter 16



迅雷下载资源速度为零或资源敏感被和谐时,推荐使用qBittorrent等下载软件,有条件的推荐115更好的下载软件!

下载地址:


游客,如果您要查看本帖隐藏内容请回复





上一篇:母亲儿子老鼠和枪 (2022) 4K高清版本下载
下一篇:无限风暴 / Infinite Storm (2022) 4K高清版本下载
回复

使用道具 举报

3

主题

1704

帖子

4706

积分

4K家园VIP

Rank: 9Rank: 9Rank: 9

积分
4706
发表于 2022-4-12 10:44:14 | 显示全部楼层
垃圾
回复 支持 反对

使用道具 举报

0

主题

346

帖子

2121

积分

注册会员

Rank: 2

积分
2121
发表于 2022-4-12 12:47:17 | 显示全部楼层
谢谢楼主分享
回复 支持 反对

使用道具 举报

13

主题

1211

帖子

3605

积分

4K家园VIP

Rank: 9Rank: 9Rank: 9

积分
3605
发表于 2022-4-12 23:20:29 来自手机 | 显示全部楼层
支持你哈...................................
回复 支持 反对

使用道具 举报

0

主题

9

帖子

34

积分

新手上路

Rank: 1

积分
34
发表于 2022-4-13 03:22:47 | 显示全部楼层
直载看看
回复

使用道具 举报

2

主题

1392

帖子

4198

积分

4K家园VIP

Rank: 9Rank: 9Rank: 9

积分
4198
发表于 2022-4-13 07:31:13 来自手机 | 显示全部楼层
无论是不是沙发都得回复下
回复 支持 反对

使用道具 举报

2

主题

1326

帖子

3792

积分

4K家园VIP

Rank: 9Rank: 9Rank: 9

积分
3792
发表于 2022-4-13 09:25:17 | 显示全部楼层
为了三千积分!
回复 支持 反对

使用道具 举报

41

主题

1486

帖子

4258

积分

4K家园VIP

Rank: 9Rank: 9Rank: 9

积分
4258
发表于 2022-4-13 17:27:46 | 显示全部楼层
鼎力支持!!
回复 支持 反对

使用道具 举报

0

主题

3

帖子

15

积分

新手上路

Rank: 1

积分
15
发表于 2022-4-16 21:31:04 | 显示全部楼层
感谢分享好片
回复 支持 反对

使用道具 举报

您需要登录后才可以回帖 登录 | 立即注册

本版积分规则

精彩图文
Archiver|手机版|TAG|Sitemap|新帖|专题|联系我们:邮箱: 4kjia.com@gmail.com   

4k家园   ©2019