超蓬勃:优步之战 第一季/全7集 (2022)/ 4K高清版本下载

[复制链接]

126

主题

145

帖子

1412

积分

版主

Rank: 7Rank: 7Rank: 7

积分
1412
 楼主| 发表于 2022-4-13 13:12:21 | 显示全部楼层 |阅读模式
本帖最后由 美剧小虾 于 2022-4-14 10:19 编辑

p2868985901.webp_副本.jpg

◎译  名 超蓬勃:优步之战 第一季/超兴奋/蓬勃发展/Super Pumped
◎片  名 Super Pumped: The Battle For Uber Season 1
◎年  代 2022
◎产  地 美国
◎类  别 剧情/传记
◎语  言 英语
◎上映日期 2022-02-27(美国)
◎IMDb评分  7.1/10 from 1904 users
◎IMDb链接  https://www.imdb.com/title/tt11173006/
◎豆瓣评分 8.0/10 from 458 users
◎豆瓣链接 https://douban.com/subject/35472773/
◎集  数 7
◎导  演 艾伦·考特勒 Allen Coulter
◎编  剧 布赖恩·科佩尔曼 Brian Koppelman / 大卫·莱维恩 David Levien
◎主  演 约瑟夫·高登-莱维特 Joseph Gordon-Levitt
       凯尔·钱德勒 Kyle Chandler
       乌玛·瑟曼 Uma Thurman
       伊丽莎白·苏 Elisabeth Shue
       昆汀·塔伦蒂诺 Quentin Tarantino
       凯瑞·碧许 Kerry Bishé
       乔恩·巴斯 Jon Bass
       杰西卡·赫特 Jessica Hecht
       安妮·张 Annie Chang
       本·费德曼 Ben Feldman
       汉克·阿扎利亚 Hank Azaria
       约翰·迈克尔·辛吉斯 John Michael Higgins
       约翰·马加罗 John Magaro
       罗伯·莫洛 Rob Morrow
       理查德·希夫 Richard Schiff
       伊娃维克多 Eva Victor
       杰瑞米·霍华德 Jeremy Howard
       弗吉尼亚·库尔 Virginia Kull
       阿曼达·布鲁克斯 Amanda Brooks
       达伦·佩蒂 Darren Pettie
       桑尼·瓦利森蒂 Sonny Valicenti
       穆萨·克拉许 Mousa Kraish
       米什卡·特博 Mishka Thébaud
       迈克·卡波齐 Mike Capozzi
       伊恩·阿尔达 Ian Alda
       Alex Fatovich Alex Fatovich
       Gregory J. Barnett Gregory J. Barnett
        Alex Skinner
       布兰森·奎克 Branson Quirke
       万恩·姆约维奇 Vaughn Myovich


◎简  介


  《超蓬勃》以诗选剧类型开发,每季探索一个撼动商业世界核心并改变文化的故事。

  第一季《优步之战》改编自Mike Isaac的纪实文学《热血野心/恣意橫行(台) Super Pumped: The Battle for Uber》,由《亿万》的两位主创Brian Koppelman及 David Levien负责。

  《优步之战》讲述硅谷最成功也最具破坏性的公司Uber,主角是Travis Kalanick,在一场董事会政变中被赶下台的硬核CEO。故事将重现Uber过山车式的兴衰、引起诸多后果的内外交战,体现硅谷的起起伏伏。
Video
ID                             : 1
Format                         : HEVC
Format/Info                    : High Efficiency Video Coding
Format profile                 : Main 10@L5@High
Codec ID                       : V_MPEGH/ISO/HEVC
Duration                       : 57 min 42 s
Bit rate                       : 11.7 Mb/s
Width                          : 3 840 pixels
Height                         : 2 160 pixels
Display aspect ratio           : 16:9
Frame rate mode                : Constant
Frame rate                     : 23.976 (24000/1001) FPS
Color space                    : YUV
Chroma subsampling             : 4:2:0
Bit depth                      : 10 bits
Bits/(Pixel*Frame)             : 0.059
Stream size                    : 4.71 GiB (93%)
Default                        : No
Forced                         : No
Color range                    : Limited
Color primaries                : BT.709
Transfer characteristics       : BT.709
Matrix coefficients            : BT.709

Audio
ID                             : 2
Format                         : E-AC-3
Format/Info                    : Enhanced AC-3
Commercial name                : Dolby Digital Plus
Codec ID                       : A_EAC3
Duration                       : 57 min 42 s
Bit rate mode                  : Constant
Bit rate                       : 640 kb/s
Channel(s)                     : 6 channels
Channel layout                 : L R C LFE Ls Rs
Sampling rate                  : 48.0 kHz
Frame rate                     : 31.250 FPS (1536 SPF)
Compression mode               : Lossy
Delay relative to video        : 18 ms
Stream size                    : 264 MiB (5%)
Language                       : English
Service kind                   : Complete Main
Default                        : Yes
Forced                         : No

Text #1
ID                             : 3
Format                         : UTF-8
Codec ID                       : S_TEXT/UTF8
Codec ID/Info                  : UTF-8 Plain Text
Language                       : English
Default                        : No
Forced                         : No

Text #2
ID                             : 4
Format                         : UTF-8
Codec ID                       : S_TEXT/UTF8
Codec ID/Info                  : UTF-8 Plain Text
Title                          : SDH
Language                       : English
Default                        : No
Forced                         : No

下载地址:

游客,如果您要查看本帖隐藏内容请回复

游客,如果您要查看本帖隐藏内容请回复

游客,如果您要查看本帖隐藏内容请回复

游客,如果您要查看本帖隐藏内容请回复



上一篇:人生切割术 (内嵌中字) 第一季/全9集 (2022)/ 4K高清版本下载
下一篇:梦魇绝镇 / From (2022) 第一季/全10集/ 4K高清版本下载
回复

使用道具 举报

2

主题

1404

帖子

4072

积分

4K家园VIP

Rank: 9Rank: 9Rank: 9

积分
4072
发表于 2022-4-13 13:12:31 来自手机 | 显示全部楼层
是爷们的娘们的都帮顶!大力支持
回复 支持 反对

使用道具 举报

1

主题

1747

帖子

4849

积分

4K家园VIP

Rank: 9Rank: 9Rank: 9

积分
4849
发表于 2022-4-19 10:47:24 | 显示全部楼层
鄙视楼下的顶帖没我快,哈哈
回复 支持 反对

使用道具 举报

0

主题

8229

帖子

1万

积分

4K家园VIP

Rank: 9Rank: 9Rank: 9

积分
18818
发表于 2022-4-19 11:31:53 | 显示全部楼层
太好啦&萬分感謝版主的無私發佈分享%
回复 支持 反对

使用道具 举报

47

主题

1525

帖子

4417

积分

4K家园VIP

Rank: 9Rank: 9Rank: 9

积分
4417
发表于 2022-4-19 16:52:55 | 显示全部楼层
垃圾内容,路过为证。
回复 支持 反对

使用道具 举报

3

主题

1287

帖子

3879

积分

4K家园VIP

Rank: 9Rank: 9Rank: 9

积分
3879
发表于 2022-4-19 17:54:54 来自手机 | 显示全部楼层
发发呆,回回帖,工作结束~
回复 支持 反对

使用道具 举报

55

主题

1467

帖子

4259

积分

4K家园VIP

Rank: 9Rank: 9Rank: 9

积分
4259
发表于 2022-4-22 20:51:28 | 显示全部楼层
回复 支持 反对

使用道具 举报

您需要登录后才可以回帖 登录 | 立即注册

本版积分规则

精彩图文
Archiver|手机版|TAG|Sitemap|新帖|专题|联系我们:邮箱: 4kjia.com@gmail.com   

4k家园   ©2019