梦魇绝镇 / From (2022) 第一季/全10集/ 4K高清版本下载

[复制链接]

126

主题

145

帖子

1412

积分

版主

Rank: 7Rank: 7Rank: 7

积分
1412
 楼主| 发表于 2022-4-13 13:25:49 | 显示全部楼层 |阅读模式
本帖最后由 美剧小虾 于 2022-4-13 13:27 编辑

p2868580502.webp_副本.jpg

◎译  名 梦魇绝镇/逃离恐怖镇
◎片  名 From
◎年  代 2022
◎产  地 美国
◎类  别 科幻/恐怖
◎语  言 英语
◎上映日期 2022-02-20(美国)
◎IMDb评分  7.8/10 from 7446 users
◎IMDb链接  https://www.imdb.com/title/tt9813792/
◎豆瓣评分 7.0/10 from 12666 users
◎豆瓣链接 https://douban.com/subject/35460437/
◎导  演 杰克·本德 Jack Bender
◎主  演 哈罗德·佩里诺 Harold Perrineau
       卡塔琳娜·桑地诺·莫雷诺 Catalina Sandino Moreno
       艾恩·贝利 Eion Bailey
       汉娜切尔敏 Hannah Cheramy
       瑞奇·何 Ricky He
       肖恩·摩忠德 Shaun Majumder
       大卫·阿尔帕伊 David Alpay
       伊丽莎白·桑德斯 Elizabeth Saunders
       斯科特·麦克科德 Scott McCord


◎简  介


  本剧讲述美国中部一个噩梦般的小镇会困住所有走进来的人,而不甘愿留下来的人在找寻出路的同时,他们还得面对日落后出没的怪物。

Video
ID                             : 1
Format                         : HEVC
Format/Info                    : High Efficiency Video Coding
Format profile                 : Main 10@L5@High
Codec ID                       : V_MPEGH/ISO/HEVC
Duration                       : 45 min 17 s
Bit rate                       : 11.7 Mb/s
Width                          : 3 838 pixels
Height                         : 1 906 pixels
Display aspect ratio           : 2.014
Frame rate mode                : Constant
Frame rate                     : 23.976 (24000/1001) FPS
Color space                    : YUV
Chroma subsampling             : 4:2:0
Bit depth                      : 10 bits
Bits/(Pixel*Frame)             : 0.067
Stream size                    : 3.71 GiB (93%)
Default                        : No
Forced                         : No
Color range                    : Limited
Color primaries                : BT.709
Transfer characteristics       : BT.709
Matrix coefficients            : BT.709

Audio
ID                             : 2
Format                         : E-AC-3
Format/Info                    : Enhanced AC-3
Commercial name                : Dolby Digital Plus
Codec ID                       : A_EAC3
Duration                       : 45 min 17 s
Bit rate mode                  : Constant
Bit rate                       : 640 kb/s
Channel(s)                     : 6 channels
Channel layout                 : L R C LFE Ls Rs
Sampling rate                  : 48.0 kHz
Frame rate                     : 31.250 FPS (1536 SPF)
Compression mode               : Lossy
Delay relative to video        : 24 ms
Stream size                    : 207 MiB (5%)
Language                       : English
Service kind                   : Complete Main
Default                        : Yes
Forced                         : No

Text #1
ID                             : 3
Format                         : UTF-8
Codec ID                       : S_TEXT/UTF8
Codec ID/Info                  : UTF-8 Plain Text
Language                       : English
Default                        : No
Forced                         : No

Text #2
ID                             : 4
Format                         : UTF-8
Codec ID                       : S_TEXT/UTF8
Codec ID/Info                  : UTF-8 Plain Text
Title                          : SDH
Language                       : English
Default                        : No
Forced                         : No

下载地址:

游客,如果您要查看本帖隐藏内容请回复





上一篇:超蓬勃:优步之战 第一季/全7集 (2022)/ 4K高清版本下载
下一篇:冰川时代:斯克特的传说 (2022) 第一季/全6集/ 4K高清版本下载
回复

使用道具 举报

0

主题

1566

帖子

4298

积分

4K家园VIP

Rank: 9Rank: 9Rank: 9

积分
4298
发表于 2022-4-13 13:26:38 | 显示全部楼层
看帖要回,回帖才健康,在踩踩,楼主辛苦了!
回复 支持 反对

使用道具 举报

2

主题

1186

帖子

3576

积分

4K家园VIP

Rank: 9Rank: 9Rank: 9

积分
3576
发表于 2022-4-14 05:40:53 来自手机 | 显示全部楼层
没人回帖。。。我来个吧
回复 支持 反对

使用道具 举报

0

主题

1

帖子

6

积分

新手上路

Rank: 1

积分
6
发表于 2022-4-14 19:20:59 | 显示全部楼层
多谢分享 这就试试 能不能下载
回复 支持 反对

使用道具 举报

0

主题

5

帖子

41

积分

新手上路

Rank: 1

积分
41
发表于 2022-4-15 10:33:24 | 显示全部楼层
支持一下,好人盘
回复 支持 反对

使用道具 举报

0

主题

1

帖子

10

积分

新手上路

Rank: 1

积分
10
发表于 2022-4-15 20:06:53 | 显示全部楼层
看帖要回,回帖才健康,在踩踩,楼主辛苦了!
回复 支持 反对

使用道具 举报

51

主题

1472

帖子

4320

积分

4K家园VIP

Rank: 9Rank: 9Rank: 9

积分
4320
发表于 2022-4-17 13:19:43 来自手机 | 显示全部楼层
围观 围观 沙发在哪里!!!
回复 支持 反对

使用道具 举报

4

主题

1354

帖子

4073

积分

4K家园VIP

Rank: 9Rank: 9Rank: 9

积分
4073
发表于 2022-4-23 03:24:44 | 显示全部楼层
哈哈,我只看看不说话
回复 支持 反对

使用道具 举报

4

主题

1435

帖子

4149

积分

4K家园VIP

Rank: 9Rank: 9Rank: 9

积分
4149
发表于 2022-4-24 15:30:06 | 显示全部楼层
LZ敢整点更有创意的不?兄弟们等着围观捏~
回复 支持 反对

使用道具 举报

0

主题

1

帖子

10

积分

新手上路

Rank: 1

积分
10
发表于 2022-4-25 16:41:09 | 显示全部楼层
.........
回复

使用道具 举报

您需要登录后才可以回帖 登录 | 立即注册

本版积分规则

精彩图文
Archiver|手机版|TAG|Sitemap|新帖|专题|联系我们:邮箱: 4kjia.com@gmail.com   

4k家园   ©2019