[4K电影] [第53届奥斯卡] 普通人 / Ordinary People (1980) 4K高清版本下载

[复制链接]

1723

主题

1856

帖子

1万

积分

超级版主

Rank: 8Rank: 8

积分
14024
 楼主| 发表于 2022-4-18 10:39:29 | 显示全部楼层 |阅读模式
本帖最后由 最爱4K哟 于 2022-5-9 21:01 编辑

QQ图片20220418102725_副本.png

◎译  名 普通人/凡夫俗子/慈父严母
◎片  名 Ordinary People
◎年  代 1980
◎产  地 美国
◎类  别 剧情
◎语  言 英语
◎上映日期 1980-09-19
◎IMDb评分  7.7/10 from 51254 users
◎IMDb链接  https://www.imdb.com/title/tt0081283/
◎豆瓣评分 8.0/10 from 4934 users
◎豆瓣链接 https://movie.douban.com/subject/1294925/
◎导  演 罗伯特·雷德福 Robert Redford
◎编  剧 朱迪斯·格斯特 Judith Guest / 阿尔文·萨金特 Alvin Sargent / 南希·多德 Nancy Dowd
◎主  演 唐纳德·萨瑟兰 Donald Sutherland
       玛丽·泰勒·摩尔 Mary Tyler Moore
       贾德·赫希 Judd Hirsch
       蒂莫西·赫顿 Timothy Hutton
       M·埃梅特·沃尔什 M. Emmet Walsh
       伊丽莎白·麦戈文 Elizabeth McGovern
       黛娜·马诺夫 Dinah Manoff
       弗瑞德里克·林恩 Fredric Lehne
       詹姆斯·希金 James Sikking
       Basil Hoffman Basil Hoffman
       奎因·K·雷德克 Quinn K. Redeker
       Mariclare Costello Mariclare Costello
       Elizabeth Hubbard Elizabeth Hubbard
       亚当·鲍德温 Adam Baldwin
       理查德·怀廷 Richard Whiting
       Cynthia Baker Cynthia Baker
       Rudy Hornish Rudy Hornish
       简·奥德曼 Jane Alderman
       Marilyn Rockafellow Marilyn Rockafellow
       唐·比利特 Don Billett
       Randy De Troit Randy De Troit
       迈克·T·维斯 Michael T. Weiss


◎简  介


  和大部分家庭一样,杰瑞特一家人过着稳定而又平静的生活,卡尔文(唐纳德·萨瑟兰 Donald Sutherland)不仅是一个工作上矜矜业业的正直律师,同时也将父亲和丈夫的角色扮演得十分出色,和妻子贝丝(玛丽·泰勒·摩尔 Mary Tyler Moore 饰)结婚二十余载,两人的感情分外稳定。
  身为杰瑞特家的大儿子,伯克(Scott Doebler 饰)享受着更多的关心与爱,身为小儿子的康纳德(蒂莫西·赫顿 Timothy Hutton 饰)对此却并不在意。一次意外中,伯克溺水身亡,悲痛欲绝的贝丝迁怒于当时和伯克在一起的康纳德,这让后者十分痛苦与自责,好在有卡尔文的陪伴和关心,他内心的创伤才渐渐治愈。然而,当他再次鼓起勇气向母亲索取温暖的时候,贝丝的举动却让他的心再一次坠入了冰窖。
Video
ID : 1
Format : HEVC
Format/Info : High Efficiency Video Coding
Format profile : Main 10@L5@High
HDR format : Dolby Vision, Version 1.0, dvhe.05.06, BL+RPU
Codec ID : V_MPEGH/ISO/HEVC
Duration : 2 h 4 min
Bit rate : 25.0 Mb/s
Width : 3 838 pixels
Height : 2 160 pixels
Display aspect ratio : 16:9
Frame rate mode : Constant
Frame rate : 23.976 (24000/1001) FPS
Color space : YUV
Chroma subsampling : 4:2:0
Bit depth : 10 bits
Bits/(Pixel*Frame) : 0.126
Stream size : 21.7 GiB (96%)
Default : Yes
Forced : No

Audio #1
ID : 2
ID in the original source medium : 4352 (0x1100)
Format : MLP FBA
Format/Info : Meridian Lossless Packing FBA
Commercial name : Dolby TrueHD
Codec ID : A_TRUEHD
Duration : 2 h 4 min
Bit rate mode : Variable
Bit rate : 633 kb/s
Maximum bit rate : 1 209 kb/s
Channel(s) : 2 channels
Channel layout : L R
Sampling rate : 48.0 kHz
Frame rate : 1 200.000 FPS (40 SPF)
Compression mode : Lossless
Stream size : 563 MiB (2%)
Language : English
Default : Yes
Forced : No
Original source medium : Blu-ray

Audio #2
ID : 3
ID in the original source medium : 4352 (0x1100)
Format : AC-3
Format/Info : Audio Coding 3
Commercial name : Dolby Digital
Codec ID : A_AC3
Duration : 2 h 4 min
Bit rate mode : Constant
Bit rate : 224 kb/s
Channel(s) : 2 channels
Channel layout : L R
Sampling rate : 48.0 kHz
Frame rate : 31.250 FPS (1536 SPF)
Compression mode : Lossy
Stream size : 199 MiB (1%)
Language : English
Service kind : Complete Main
Default : Yes
Forced : No
Original source medium : Blu-ray

Audio #3
ID : 4
Format : AAC LC
Format/Info : Advanced Audio Codec Low Complexity
Codec ID : A_AAC-2
Duration : 2 h 4 min
Bit rate : 109 kb/s
Channel(s) : 2 channels
Channel layout : L R
Sampling rate : 48.0 kHz
Frame rate : 46.875 FPS (1024 SPF)
Compression mode : Lossy
Stream size : 96.5 MiB (0%)
Language : English
Default : Yes
Forced : No

Text #1
ID : 5
Format : UTF-8
Codec ID : S_TEXT/UTF8
Codec ID/Info : UTF-8 Plain Text
Duration : 1 h 59 min
Bit rate : 64 b/s
Count of elements : 2010
Stream size : 56.3 KiB (0%)
Title : English CC
Language : English
Default : Yes
Forced : No

Text #2
ID : 6
Format : UTF-8
Codec ID : S_TEXT/UTF8
Codec ID/Info : UTF-8 Plain Text
Duration : 2 h 3 min
Bit rate : 62 b/s
Count of elements : 1455
Stream size : 56.1 KiB (0%)
Title : German
Language : German
Default : No
Forced : No

Text #3
ID : 7
Format : UTF-8
Codec ID : S_TEXT/UTF8
Codec ID/Info : UTF-8 Plain Text
Duration : 1 h 57 min
Bit rate : 69 b/s
Count of elements : 1753
Stream size : 60.1 KiB (0%)
Title : Spanish Latin American
Language : Spanish
Default : No
Forced : No

Text #4
ID : 8
Format : UTF-8
Codec ID : S_TEXT/UTF8
Codec ID/Info : UTF-8 Plain Text
Duration : 2 h 0 min
Bit rate : 58 b/s
Count of elements : 1379
Stream size : 51.7 KiB (0%)
Title : Spanish European
Language : Spanish
Default : No
Forced : No

Text #5
ID : 9
Format : UTF-8
Codec ID : S_TEXT/UTF8
Codec ID/Info : UTF-8 Plain Text
Duration : 2 h 0 min
Bit rate : 44 b/s
Count of elements : 1172
Stream size : 39.6 KiB (0%)
Title : French European
Language : French
Default : No
Forced : No

Text #6
ID : 10
Format : UTF-8
Codec ID : S_TEXT/UTF8
Codec ID/Info : UTF-8 Plain Text
Duration : 1 h 57 min
Bit rate : 63 b/s
Count of elements : 1382
Stream size : 54.1 KiB (0%)
Title : Italian
Language : Italian
Default : No
Forced : No

Text #7
ID : 11
Format : UTF-8
Codec ID : S_TEXT/UTF8
Codec ID/Info : UTF-8 Plain Text
Duration : 1 h 57 min
Bit rate : 47 b/s
Count of elements : 1118
Stream size : 40.5 KiB (0%)
Title : Dutch
Language : Dutch
Default : No
Forced : No

Text #8
ID : 12
Format : UTF-8
Codec ID : S_TEXT/UTF8
Codec ID/Info : UTF-8 Plain Text
Duration : 1 h 57 min
Bit rate : 61 b/s
Count of elements : 1366
Stream size : 52.9 KiB (0%)
Title : Portuguese Brazilian
Language : Portuguese
Default : No
Forced : No

Text #9
ID : 13
ID in the original source medium : 4608 (0x1200)
Format : PGS
Muxing mode : zlib
Codec ID : S_HDMV/PGS
Codec ID/Info : Picture based subtitle format used on BDs/HD-DVDs
Duration : 1 h 57 min
Bit rate : 44.0 kb/s
Count of elements : 3714
Stream size : 36.9 MiB (0%)
Language : English
Default : No
Forced : No
Original source medium : Blu-ray

Text #10
ID : 14
ID in the original source medium : 4609 (0x1201)
Format : PGS
Muxing mode : zlib
Codec ID : S_HDMV/PGS
Codec ID/Info : Picture based subtitle format used on BDs/HD-DVDs
Duration : 1 h 59 min
Bit rate : 49.4 kb/s
Count of elements : 3950
Stream size : 42.3 MiB (0%)
Language : English
Default : No
Forced : No
Original source medium : Blu-ray

Text #11
ID : 15
ID in the original source medium : 4610 (0x1202)
Format : PGS
Muxing mode : zlib
Codec ID : S_HDMV/PGS
Codec ID/Info : Picture based subtitle format used on BDs/HD-DVDs
Duration : 2 h 0 min
Bit rate : 43.2 kb/s
Count of elements : 2908
Stream size : 37.2 MiB (0%)
Language : German
Default : No
Forced : No
Original source medium : Blu-ray

Text #12
ID : 16
ID in the original source medium : 4611 (0x1203)
Format : PGS
Muxing mode : zlib
Codec ID : S_HDMV/PGS
Codec ID/Info : Picture based subtitle format used on BDs/HD-DVDs
Duration : 2 h 0 min
Bit rate : 38.7 kb/s
Count of elements : 2758
Stream size : 33.3 MiB (0%)
Language : Spanish
Default : No
Forced : No
Original source medium : Blu-ray

Text #13
ID : 17
ID in the original source medium : 4612 (0x1204)
Format : PGS
Muxing mode : zlib
Codec ID : S_HDMV/PGS
Codec ID/Info : Picture based subtitle format used on BDs/HD-DVDs
Duration : 2 h 0 min
Bit rate : 28.7 kb/s
Count of elements : 2344
Stream size : 24.7 MiB (0%)
Language : French
Default : No
Forced : No
Original source medium : Blu-ray

Text #14
ID : 18
ID in the original source medium : 4613 (0x1205)
Format : PGS
Muxing mode : zlib
Codec ID : S_HDMV/PGS
Codec ID/Info : Picture based subtitle format used on BDs/HD-DVDs
Duration : 1 h 57 min
Bit rate : 23.6 kb/s
Count of elements : 2870
Stream size : 19.8 MiB (0%)
Language : Japanese
Default : No
Forced : No
Original source medium : Blu-ray

Text #15
ID : 19
ID in the original source medium : 4614 (0x1206)
Format : PGS
Muxing mode : zlib
Codec ID : S_HDMV/PGS
Codec ID/Info : Picture based subtitle format used on BDs/HD-DVDs
Duration : 2 h 3 min
Bit rate : 92 b/s
Count of elements : 8
Stream size : 83.4 KiB (0%)
Language : German
Default : No
Forced : No
Original source medium : Blu-ray

Text #16
ID : 20
ID in the original source medium : 4615 (0x1207)
Format : PGS
Muxing mode : zlib
Codec ID : S_HDMV/PGS
Codec ID/Info : Picture based subtitle format used on BDs/HD-DVDs
Duration : 2 h 3 min
Bit rate : 30 b/s
Count of elements : 4
Stream size : 27.8 KiB (0%)
Language : Spanish
Default : No
Forced : No
Original source medium : Blu-ray

Text #17
ID : 21
ID in the original source medium : 4616 (0x1208)
Format : PGS
Muxing mode : zlib
Codec ID : S_HDMV/PGS
Codec ID/Info : Picture based subtitle format used on BDs/HD-DVDs
Duration : 4 s 546 ms
Bit rate : 40.7 kb/s
Count of elements : 2
Stream size : 22.6 KiB (0%)
Language : French
Default : No
Forced : No
Original source medium : Blu-ray

Text #18
ID : 22
ID in the original source medium : 4617 (0x1209)
Format : PGS
Muxing mode : zlib
Codec ID : S_HDMV/PGS
Codec ID/Info : Picture based subtitle format used on BDs/HD-DVDs
Duration : 2 s 252 ms
Bit rate : 24.2 kb/s
Count of elements : 2
Stream size : 6.65 KiB (0%)
Language : Japanese
Default : No
Forced : No
Original source medium : Blu-ray

Menu
00:00:00.000 : en:Chapter 01
00:03:42.305 : en:Chapter 02
00:15:13.371 : en:Chapter 03
00:35:31.840 : en:Chapter 04
00:40:50.075 : en:Chapter 05
00:55:09.976 : en:Chapter 06
01:13:05.385 : en:Chapter 07
01:30:24.257 : en:Chapter 08
01:50:58.158 : en:Chapter 09
02:01:03.805 : en:Chapter 10

资源速度为零或资源敏感被和谐时,推荐使用qBittorrent等下载软件,有条件的推荐115更好的下载软件!

下载地址:

第53届奥斯卡金像奖
游客,如果您要查看本帖隐藏内容请回复
游客,如果您要查看本帖隐藏内容请回复

游客,如果您要查看本帖隐藏内容请回复

游客,如果您要查看本帖隐藏内容请回复







上一篇:素食者联盟(内封简繁中字)/The Game Changers (2018)4K高清版本下载
下一篇:新蝙蝠侠(附字幕)/ The Batman (2022) 4K高清版本下载
回复

使用道具 举报

6

主题

1453

帖子

4205

积分

4K家园VIP

Rank: 9Rank: 9Rank: 9

积分
4205
发表于 2022-4-18 10:39:34 | 显示全部楼层
嘘,低调。
回复 支持 反对

使用道具 举报

2

主题

1385

帖子

4179

积分

4K家园VIP

Rank: 9Rank: 9Rank: 9

积分
4179
发表于 2022-4-19 08:00:27 | 显示全部楼层
LZ帖子不给力,勉强给回复下吧
回复 支持 反对

使用道具 举报

4

主题

1354

帖子

4073

积分

4K家园VIP

Rank: 9Rank: 9Rank: 9

积分
4073
发表于 2022-4-19 21:18:28 | 显示全部楼层
为保住菊花,这个一定得回复!
回复 支持 反对

使用道具 举报

4

主题

1326

帖子

3998

积分

4K家园VIP

Rank: 9Rank: 9Rank: 9

积分
3998
发表于 2022-4-20 07:48:08 | 显示全部楼层
非常好,顶一下
回复 支持 反对

使用道具 举报

2

主题

1424

帖子

4110

积分

中级会员

Rank: 4

积分
4110
发表于 2022-4-20 10:17:23 | 显示全部楼层
为毛老子总也抢不到沙发?!!
回复 支持 反对

使用道具 举报

您需要登录后才可以回帖 登录 | 立即注册

本版积分规则

精彩图文
Archiver|手机版|TAG|Sitemap|新帖|专题|联系我们:邮箱: 4kjia.com@gmail.com   

4k家园   ©2019