[4K电影] 探险家:最后的特普伊山(内封中字)(2022) 4K高清版本下载

[复制链接]

1735

主题

1868

帖子

1万

积分

超级版主

Rank: 8Rank: 8

积分
14105
 楼主| 发表于 2022-4-23 09:33:48 | 显示全部楼层 |阅读模式

QQ图片20220423092437_副本.png

◎译  名 探险家:最后的特普伊山/探险家:攀登平顶山(台)
◎片  名 Explorer: The Last Tepui
◎年  代 2022
◎产  地 美国
◎类  别 纪录片
◎语  言 英语
◎上映日期 2022-04-22(美国网络)
◎IMDb评分  6.2/10 from 7 users
◎IMDb链接  https://www.imdb.com/title/tt17048366/
◎豆瓣评分 /10 from 0 users
◎豆瓣链接 https://movie.douban.com/subject/35859556/
◎导  演 雷纳·奥斯托克 Renan Ozturk
◎主  演 亚历克斯·霍诺德 Alex Honnold


◎简  介


  攀登家于1000英尺陡峭悬崖的真实体验,为求于悬崖壁上寻找未被发现的动物物种。

Video
ID : 1
Format : HEVC
Format/Info : High Efficiency Video Coding
Format profile : Main 10@L5@High
HDR format : SMPTE ST 2086, HDR10 compatible
Codec ID : V_MPEGH/ISO/HEVC
Duration : 54 min 47 s
Bit rate : 16.2 Mb/s
Width : 3 840 pixels
Height : 2 160 pixels
Display aspect ratio : 16:9
Frame rate mode : Constant
Frame rate : 23.976 (24000/1001/189150) FPS
Color space : YUV
Chroma subsampling : 4:2:0
Bit depth : 10 bits
Bits/(Pixel*Frame) : 0.082
Stream size : 6.20 GiB (98%)
Language : English
Default : Yes
Forced : No
Color range : Limited
Color primaries : BT.2020
Transfer characteristics : PQ
Matrix coefficients : BT.2020 non-constant
Mastering display color primaries : Display P3
Mastering display luminance : min: 0.0010 cd/m2, max: 1000 cd/m2

Audio
ID : 2
Format : E-AC-3
Format/Info : Enhanced AC-3
Commercial name : Dolby Digital Plus
Codec ID : A_EAC3
Duration : 54 min 47 s
Bit rate mode : Constant
Bit rate : 256 kb/s
Channel(s) : 6 channels
Channel layout : L R C LFE Ls Rs
Sampling rate : 48.0 kHz
Frame rate : 31.250 FPS (1536 SPF)
Compression mode : Lossy
Stream size : 100 MiB (2%)
Language : English
Service kind : Complete Main
Default : Yes
Forced : No

Text #1
ID : 3
Format : UTF-8
Codec ID : S_TEXT/UTF8
Codec ID/Info : UTF-8 Plain Text
Duration : 53 min 22 s
Bit rate : 88 b/s
Count of elements : 769
Stream size : 34.8 KiB (0%)
Title : SDH
Language : English
Default : No
Forced : No

Text #2
ID : 4
Format : UTF-8
Codec ID : S_TEXT/UTF8
Codec ID/Info : UTF-8 Plain Text
Duration : 53 min 22 s
Bit rate : 81 b/s
Count of elements : 720
Stream size : 31.7 KiB (0%)
Language : English
Default : No
Forced : No

Text #3
ID : 5
Format : UTF-8
Codec ID : S_TEXT/UTF8
Codec ID/Info : UTF-8 Plain Text
Duration : 54 min 32 s
Bit rate : 68 b/s
Count of elements : 679
Stream size : 27.2 KiB (0%)
Language : Czech
Default : No
Forced : No

Text #4
ID : 6
Format : UTF-8
Codec ID : S_TEXT/UTF8
Codec ID/Info : UTF-8 Plain Text
Duration : 54 min 32 s
Bit rate : 72 b/s
Count of elements : 704
Stream size : 29.1 KiB (0%)
Language : Danish
Default : No
Forced : No

Text #5
ID : 7
Format : UTF-8
Codec ID : S_TEXT/UTF8
Codec ID/Info : UTF-8 Plain Text
Duration : 54 min 32 s
Bit rate : 77 b/s
Count of elements : 714
Stream size : 30.9 KiB (0%)
Language : German
Default : No
Forced : No

Text #6
ID : 8
Format : UTF-8
Codec ID : S_TEXT/UTF8
Codec ID/Info : UTF-8 Plain Text
Duration : 54 min 32 s
Bit rate : 133 b/s
Count of elements : 708
Stream size : 53.4 KiB (0%)
Language : Greek
Default : No
Forced : No

Text #7
ID : 9
Format : UTF-8
Codec ID : S_TEXT/UTF8
Codec ID/Info : UTF-8 Plain Text
Duration : 54 min 32 s
Bit rate : 69 b/s
Count of elements : 717
Stream size : 27.6 KiB (0%)
Language : Spanish
Default : No
Forced : No

Text #8
ID : 10
Format : UTF-8
Codec ID : S_TEXT/UTF8
Codec ID/Info : UTF-8 Plain Text
Duration : 54 min 32 s
Bit rate : 76 b/s
Count of elements : 751
Stream size : 30.5 KiB (0%)
Title : Latin American
Language : Spanish
Default : No
Forced : No

Text #9
ID : 11
Format : UTF-8
Codec ID : S_TEXT/UTF8
Codec ID/Info : UTF-8 Plain Text
Duration : 54 min 32 s
Bit rate : 59 b/s
Count of elements : 703
Stream size : 23.8 KiB (0%)
Language : Finnish
Default : No
Forced : No

Text #10
ID : 12
Format : UTF-8
Codec ID : S_TEXT/UTF8
Codec ID/Info : UTF-8 Plain Text
Duration : 54 min 32 s
Bit rate : 79 b/s
Count of elements : 716
Stream size : 31.6 KiB (0%)
Language : French
Default : No
Forced : No

Text #11
ID : 13
Format : UTF-8
Codec ID : S_TEXT/UTF8
Codec ID/Info : UTF-8 Plain Text
Duration : 54 min 32 s
Bit rate : 77 b/s
Count of elements : 716
Stream size : 30.8 KiB (0%)
Language : Hungarian
Default : No
Forced : No

Text #12
ID : 14
Format : UTF-8
Codec ID : S_TEXT/UTF8
Codec ID/Info : UTF-8 Plain Text
Duration : 54 min 32 s
Bit rate : 72 b/s
Count of elements : 713
Stream size : 28.8 KiB (0%)
Language : Italian
Default : No
Forced : No

Text #13
ID : 15
Format : UTF-8
Codec ID : S_TEXT/UTF8
Codec ID/Info : UTF-8 Plain Text
Duration : 54 min 32 s
Bit rate : 70 b/s
Count of elements : 712
Stream size : 28.0 KiB (0%)
Language : Japanese
Default : No
Forced : No

Text #14
ID : 16
Format : UTF-8
Codec ID : S_TEXT/UTF8
Codec ID/Info : UTF-8 Plain Text
Duration : 54 min 38 s
Bit rate : 80 b/s
Count of elements : 742
Stream size : 32.0 KiB (0%)
Language : Korean
Default : No
Forced : No

Text #15
ID : 17
Format : UTF-8
Codec ID : S_TEXT/UTF8
Codec ID/Info : UTF-8 Plain Text
Duration : 54 min 32 s
Bit rate : 72 b/s
Count of elements : 681
Stream size : 29.0 KiB (0%)
Language : Dutch
Default : No
Forced : No

Text #16
ID : 18
Format : UTF-8
Codec ID : S_TEXT/UTF8
Codec ID/Info : UTF-8 Plain Text
Duration : 54 min 32 s
Bit rate : 72 b/s
Count of elements : 714
Stream size : 28.8 KiB (0%)
Language : Norwegian
Default : No
Forced : No

Text #17
ID : 19
Format : UTF-8
Codec ID : S_TEXT/UTF8
Codec ID/Info : UTF-8 Plain Text
Duration : 54 min 32 s
Bit rate : 70 b/s
Count of elements : 692
Stream size : 28.2 KiB (0%)
Language : Polish
Default : No
Forced : No

Text #18
ID : 20
Format : UTF-8
Codec ID : S_TEXT/UTF8
Codec ID/Info : UTF-8 Plain Text
Duration : 54 min 32 s
Bit rate : 66 b/s
Count of elements : 710
Stream size : 26.7 KiB (0%)
Language : Portuguese
Default : No
Forced : No

Text #19
ID : 21
Format : UTF-8
Codec ID : S_TEXT/UTF8
Codec ID/Info : UTF-8 Plain Text
Duration : 54 min 32 s
Bit rate : 69 b/s
Count of elements : 710
Stream size : 27.9 KiB (0%)
Title : Brazilian
Language : Portuguese
Default : No
Forced : No

Text #20
ID : 22
Format : UTF-8
Codec ID : S_TEXT/UTF8
Codec ID/Info : UTF-8 Plain Text
Duration : 54 min 32 s
Bit rate : 78 b/s
Count of elements : 706
Stream size : 31.5 KiB (0%)
Language : Romanian
Default : No
Forced : No

Text #21
ID : 23
Format : UTF-8
Codec ID : S_TEXT/UTF8
Codec ID/Info : UTF-8 Plain Text
Duration : 54 min 32 s
Bit rate : 74 b/s
Count of elements : 715
Stream size : 29.7 KiB (0%)
Language : Slovak
Default : No
Forced : No

Text #22
ID : 24
Format : UTF-8
Codec ID : S_TEXT/UTF8
Codec ID/Info : UTF-8 Plain Text
Duration : 54 min 32 s
Bit rate : 70 b/s
Count of elements : 643
Stream size : 28.2 KiB (0%)
Language : Swedish
Default : No
Forced : No

Text #23
ID : 25
Format : UTF-8
Codec ID : S_TEXT/UTF8
Codec ID/Info : UTF-8 Plain Text
Duration : 54 min 32 s
Bit rate : 75 b/s
Count of elements : 712
Stream size : 30.2 KiB (0%)
Language : Turkish
Default : No
Forced : No

Text #24
ID : 26
Format : UTF-8
Codec ID : S_TEXT/UTF8
Codec ID/Info : UTF-8 Plain Text
Duration : 54 min 38 s
Bit rate : 62 b/s
Count of elements : 718
Stream size : 24.9 KiB (0%)
Title : 中文(香港)
Language : 中文
Default : No
Forced : No

Text #25
ID : 27
Format : UTF-8
Codec ID : S_TEXT/UTF8
Codec ID/Info : UTF-8 Plain Text
Duration : 54 min 32 s
Bit rate : 60 b/s
Count of elements : 717
Stream size : 24.3 KiB (0%)
Title : 中文(简体)
Language : 中文
Default : No
Forced : No

Text #26
ID : 28
Format : UTF-8
Codec ID : S_TEXT/UTF8
Codec ID/Info : UTF-8 Plain Text
Duration : 54 min 38 s
Bit rate : 62 b/s
Count of elements : 718
Stream size : 24.9 KiB (0%)
Title : 中文(繁体)
Language : 中文
Default : No
Forced : No
资源速度为零或资源敏感被和谐时,推荐使用qBittorrent等下载软件,有条件的推荐115更好的下载软件!

下载地址:

游客,如果您要查看本帖隐藏内容请回复

游客,如果您要查看本帖隐藏内容请回复

游客,如果您要查看本帖隐藏内容请回复





上一篇:北极熊(内封简繁中字) / Polar Bear (2022) 4K高清版本下载
下一篇:神秘海域(附字幕) / Uncharted (2022) 4K高清版本下载
回复

使用道具 举报

55

主题

1525

帖子

4407

积分

4K家园VIP

Rank: 9Rank: 9Rank: 9

积分
4407
发表于 2022-4-23 09:33:53 | 显示全部楼层
边撸边过
回复 支持 反对

使用道具 举报

2

主题

1305

帖子

3933

积分

4K家园VIP

Rank: 9Rank: 9Rank: 9

积分
3933
发表于 2022-4-23 10:10:30 | 显示全部楼层
前排支持下了哦~
回复 支持 反对

使用道具 举报

0

主题

8230

帖子

1万

积分

4K家园VIP

Rank: 9Rank: 9Rank: 9

积分
18830
发表于 2022-4-23 10:33:19 | 显示全部楼层
太好啦&萬分感謝版主的無私發佈分享%
回复 支持 反对

使用道具 举报

0

主题

2

帖子

19

积分

新手上路

Rank: 1

积分
19
发表于 2022-4-23 10:37:24 | 显示全部楼层
前排支持
回复

使用道具 举报

1

主题

1380

帖子

3940

积分

中级会员

Rank: 4

积分
3940
发表于 2022-4-23 11:12:08 | 显示全部楼层
4K应该不错,我也下个看看
回复 支持 反对

使用道具 举报

4

主题

1435

帖子

4149

积分

4K家园VIP

Rank: 9Rank: 9Rank: 9

积分
4149
发表于 2022-4-23 11:52:21 来自手机 | 显示全部楼层
支持楼主,用户楼主,楼主英明呀!!!
回复 支持 反对

使用道具 举报

0

主题

1647

帖子

4571

积分

4K家园VIP

Rank: 9Rank: 9Rank: 9

积分
4571
发表于 2022-4-23 12:22:14 | 显示全部楼层
4K家园资源不错,前排支持
回复 支持 反对

使用道具 举报

2

主题

234

帖子

3077

积分

中级会员

Rank: 4

积分
3077
发表于 2022-4-24 08:41:45 | 显示全部楼层
应该不错                     
回复 支持 反对

使用道具 举报

您需要登录后才可以回帖 登录 | 立即注册

本版积分规则

精彩图文
Archiver|手机版|TAG|Sitemap|新帖|专题|联系我们:邮箱: 4kjia.com@gmail.com   

4k家园   ©2019