白粉飞 / Snowfall (2018)/第一季全10集/4K高清版下载

[复制链接]

121

主题

140

帖子

1369

积分

版主

Rank: 7Rank: 7Rank: 7

积分
1369
 楼主| 发表于 2022-4-27 20:37:21 | 显示全部楼层 |阅读模式

p2492968592_副本.jpg

◎译  名 白粉飞 第一季/毒品风云/毒粉纷飞
◎片  名 Snowfall Season 1
◎年  代 2017
◎产  地 美国
◎类  别 剧情/历史
◎语  言 英语
◎上映日期 2017-07-05(美国)
◎集  数 10
◎导  演 阿迪尔·埃尔·阿尔比 Adil El Arbi /比拉尔·法拉 Bilall Fallah
◎主  演 阿隆·阿布布尔 Alon Aboutboul
      达姆森·伊德里斯 Damson Idris
      阿明·约瑟夫 Amin Joseph
      艾米莉·里奥斯 Emily Rios
      迈克尔·凯悦 Michael Hyatt
      卡特·哈德森 Carter Hudson
      塞尔吉奥·佩里斯·门切塔 Sergio Peris-Mencheta
      以赛亚·约翰 Isaiah John



◎简  介



  被正式预订的FX剧《白粉飞 Snowfall》首季为10集,该剧由John Singleton创作,故事关于1980年代洛杉矶的毒品交易蔓延。《Boyz N The Hood》导演Singleton和Eric Amadio联合创作剧本,Adil El Arbi 与Bilall Fallah导演。这试映集经过重拍,找来Dave Andron当制作人,另外该剧抽中了税务减免。

  《白粉飞》设定于毒品蔓延初期,最终众所周知影响到文化层面。Franklin Saint(Damson Idris饰)认为自己是个街头「企业家」,渴望权力;他在洛杉矶南区出世及成长,不过在圣盖博谷地区的较优地区学习,他决心用一切手段改善自己的生活。Gustavo Zapata(Sergio Peris-Mencheta饰),一位墨西哥摔跤手,陷入一个犯罪家庭的权力斗争。Teddy McDonald(Carter Hudson饰)是个CIA情报员,有着黑暗的秘密,正进行一个秘密﹑非局内的行动,以资助尼加拉瓜反政府活动。

  Emily Rios饰演Lucia,身在洛杉矶墨西哥犯罪家庭,但洁身自爱的女儿,该犯罪家庭偷运大麻进洛杉矶,并在此地贩毒。Michael Hyatt饰演Sharon Saint,别称Cissy,是Franklin的妈妈。不爱废话的她在个人及职业生涯都过得不如意,不过她甘愿放弃自己梦想来给予儿子自己没得到过的机会。

  Amin Joseph则饰演Franklin的叔叔Jerome Saint,一个在监狱的硬汉兼骗子,是个低层的大麻贩子。Alon Aboutboul饰演Avi Drexler,一个在圣费尔南多谷﹑不可预测的可卡因贩子。Isaiah John角色设定不详。

  Angela Lewis饰演Louise Saint,是Franklin的姨子,喜欢混迹派对﹑Juan Javier Cardenas饰演老谋深算的Alejandro Usteves,尼加拉瓜反抗军的人,为了保持革命而愿意不择手段。Filipe Valle Costa饰演自大的Pedro,是墨西哥犯罪家庭继承人。

Video
ID : 1
Format : HEVC
Format/Info : High Efficiency Video Coding
Format profile : Main 10@L5.1@Main
Codec ID : V_MPEGH/ISO/HEVC
Duration : 52 min 23 s
Bit rate : 15.3 Mb/s
Width : 3 840 pixels
Height : 2 160 pixels
Display aspect ratio : 16:9
Frame rate mode : Constant
Frame rate : 23.976 (24000/1001) FPS
Color space : YUV
Chroma subsampling : 4:2:0
Bit depth : 10 bits
Bits/(Pixel*Frame) : 0.077
Stream size : 5.61 GiB (96%)
Default : Yes
Forced : No

Audio
ID : 2
Format : E-AC-3
Format/Info : Enhanced AC-3
Commercial name : Dolby Digital Plus
Codec ID : A_EAC3
Duration : 52 min 22 s
Bit rate mode : Constant
Bit rate : 640 kb/s
Channel(s) : 6 channels
Channel layout : L R C LFE Ls Rs
Sampling rate : 48.0 kHz
Frame rate : 31.250 FPS (1536 SPF)
Compression mode : Lossy
Stream size : 240 MiB (4%)
Language : English
Service kind : Complete Main
Default : Yes
Forced : No

Text #1
ID : 3
Format : UTF-8
Codec ID : S_TEXT/UTF8
Codec ID/Info : UTF-8 Plain Text
Duration : 51 min 25 s
Bit rate : 54 b/s
Count of elements : 731
Stream size : 20.4 KiB (0%)
Language : English
Default : No
Forced : No

Text #2
ID : 4
Format : UTF-8
Codec ID : S_TEXT/UTF8
Codec ID/Info : UTF-8 Plain Text
Duration : 51 min 25 s
Bit rate : 60 b/s
Count of elements : 840
Stream size : 22.9 KiB (0%)
Title : SDH
Language : English
Default : No
Forced : No

Menu
00:00:00.000 : Chapter 1
00:08:28.003 : Chapter 2
00:18:52.001 : Chapter 3
00:29:28.007 : Chapter 4
00:38:19.010 : Chapter 5
00:51:40.012 : Chapter 6
00:51:42.013 : Credits
下载地址:

游客,如果您要查看本帖隐藏内容请回复






上一篇:迷网追凶(内嵌中字)Grid (2022)第一季全10集/4K高清版本下载
下一篇:美剧《光环》第一季全九集,更新至第8集
回复

使用道具 举报

2

主题

1404

帖子

4072

积分

4K家园VIP

Rank: 9Rank: 9Rank: 9

积分
4072
发表于 2022-4-27 20:37:46 | 显示全部楼层
垃圾内容,路过为证。
回复 支持 反对

使用道具 举报

40

主题

1515

帖子

4307

积分

4K家园VIP

Rank: 9Rank: 9Rank: 9

积分
4307
发表于 2022-4-27 20:44:00 | 显示全部楼层
1v1飘过
回复 支持 反对

使用道具 举报

3

主题

1331

帖子

4019

积分

4K家园VIP

Rank: 9Rank: 9Rank: 9

积分
4019
发表于 2022-4-27 21:17:53 | 显示全部楼层
边撸边过
回复 支持 反对

使用道具 举报

1

主题

1412

帖子

4052

积分

4K家园VIP

Rank: 9Rank: 9Rank: 9

积分
4052
发表于 2022-4-27 21:28:00 来自手机 | 显示全部楼层
支持,赞一个
回复 支持 反对

使用道具 举报

2

主题

1411

帖子

4053

积分

4K家园VIP

Rank: 9Rank: 9Rank: 9

积分
4053
发表于 2022-4-27 21:36:19 | 显示全部楼层
秀起来~
回复 支持 反对

使用道具 举报

0

主题

8229

帖子

1万

积分

4K家园VIP

Rank: 9Rank: 9Rank: 9

积分
18809
发表于 2022-4-27 21:42:52 | 显示全部楼层
太好啦&萬分感謝版主的無私發佈分享%
回复 支持 反对

使用道具 举报

0

主题

16

帖子

196

积分

新手上路

Rank: 1

积分
196
发表于 2022-4-29 16:46:12 | 显示全部楼层
123456
回复

使用道具 举报

您需要登录后才可以回帖 登录 | 立即注册

本版积分规则

精彩图文
Archiver|手机版|TAG|Sitemap|新帖|专题|联系我们:邮箱: 4kjia.com@gmail.com   

4k家园   ©2019