[4K电影] 比佛利山超级警探2 / Beverly.Hills.Cop.II (1987) 4K高清版本下载

[复制链接]

1733

主题

1866

帖子

1万

积分

超级版主

Rank: 8Rank: 8

积分
14095
 楼主| 发表于 2022-5-2 10:37:53 | 显示全部楼层 |阅读模式
QQ图片20220502102531_副本.png

◎译  名 比佛利山超级警探2 / 妙探出差2 / 妙探出差续集 / 妙探出更续集 / 比佛利山警探2 / 轰天雷2 / 霹雳炮2
◎片  名 Beverly Hills Cop II
◎年  代 1987
◎产  地 美国
◎类  别 喜剧 / 动作 / 惊悚 / 犯罪
◎语  言 英语
◎上映日期 1987-05-20
◎IMDb评分  6.5/10 from 117720 users
◎IMDb链接  https://www.imdb.com/title/tt0092644
◎豆瓣评分 6.7/10 from 1309 users
◎豆瓣链接 https://movie.douban.com/subject/1301783/
◎片  长 100 分钟
◎导  演 Tony Scott
◎编  剧 Larry Ferguson / Warren Skaaren / Danilo Bach / Daniel Petrie Jr. / Eddie Murphy / Robert D. Wachs
◎主  演 艾迪·墨菲 Eddie Murphy
      祖德·莱茵霍尔德 Judge Reinhold
      尤尔根·普洛斯诺 Jürgen Prochnow
      罗尼·考克斯 Ronny Cox
      John Ashton
      布里吉特·尼尔森 Brigitte Nielsen
      艾伦·加菲尔德 Allen Garfield
      迪恩·斯托克维尔 Dean Stockwell
      保罗·雷瑟 Paul Reiser
      Gilbert R. Hill
      保罗·盖尔福勒 Paul Guilfoyle
      Robert Ridgely
      Brian O'Connor
      Alice Adair
      Eugene Butler


◎简  介

  这是比佛利山超级警探的第二集。艾索(艾迪?墨菲 Eddie Murphy 饰)在上一集破案后老老实实地回到了底特律当他的刑警,回到底特律的他顿时感到百无聊赖。于是,艾索每周都会找他在洛山矶办案时结识的好朋友兼好搭档洛山矶警局的局长博格密尔(罗尼?考克斯 Ronny Cox 饰)出海钓鱼。
  可是这周博格密尔临时取消了和艾索的钓鱼活动,事后艾索才得知原来博格密尔卷入了一单复杂危险的案件侦察中。博格密尔不幸在调查中被犯罪枪击受伤,现在正住在医院里。向来讲义气、嫉恶如仇的艾索又怎能按耐得住,于是他马上来到了洛山矶约上最佳搭档比利(祖德?莱茵霍尔德 Judge Reinhold 饰),要一展身手为好友报仇。

◎获奖情况

  第60届奥斯卡金像奖(1988)
  最佳原创歌曲(提名) 基思·福西 / 哈罗德·方特梅耶 / Bob Seger

rame rate mode : Constant
Frame rate : 23.976 (24000/1001) FPS
Color space : YUV
Chroma subsampling : 4:2:0
Bit depth : 10 bits
Bits/(Pixel*Frame) : 0.075
Stream size : 10.7 GiB (85%)
Writing library : x265 3.4hy:[Linux][GCC 7.5.0][64 bit] 10bit
Encoding settings : cpuid=1111039 / frame-threads=6 / no-wpp / no-pmode / no-pme / no-psnr / no-ssim / log-level=2 / input-csp=1 / input-res=3840x2160 / interlace=0 / total-frames=0 / level-idc=0 / high-tier=1 / uhd-bd=0 / ref=4 / no-allow-non-conformance / repeat-headers / annexb / aud / hrd / info / hash=0 / no-temporal-layers / no-open-gop / min-keyint=48 / keyint=48 / gop-lookahead=0 / bframes=4 / b-adapt=2 / b-pyramid / bframe-bias=0 / rc-lookahead=48 / lookahead-slices=4 / scenecut=0 / hist-scenecut=0 / radl=0 / no-splice / no-intra-refresh / ctu=64 / min-cu-size=8 / rect / no-amp / max-tu-size=32 / tu-inter-depth=1 / tu-intra-depth=1 / limit-tu=0 / rdoq-level=2 / dynamic-rd=0.00 / no-ssim-rd / signhide / no-tskip / nr-intra=100 / nr-inter=400 / no-constrained-intra / strong-intra-smoothing / max-merge=3 / limit-refs=3 / limit-modes / me=3 / subme=3 / merange=57 / temporal-mvp / no-frame-dup / no-hme / weightp / no-weightb / no-analyze-src-pics / deblock=0:0 / sao / no-sao-non-deblock / rd=4 / selective-sao=4 / no-early-skip / rskip / no-fast-intra / no-tskip-fast / no-cu-lossless / no-b-intra / no-splitrd-skip / rdpenalty=0 / psy-rd=0.00 / psy-rdoq=1.00 / no-rd-refine / no-lossless / cbqpoffs=0 / crqpoffs=3 / rc=abr / bitrate=15000 / qcomp=0.60 / qpstep=4 / stats-write=0 / stats-read=2 / cplxblur=20.0 / qblur=0.5 / vbv-maxrate=18000 / vbv-bufsize=12000 / vbv-init=0.6 / vbv-end=0.6 / vbv-end-fr-adj=0.0 / ipratio=1.40 / pbratio=1.30 / aq-mode=2 / aq-strength=1.00 / cutree / zone-count=0 / no-strict-cbr / qg-size=32 / no-rc-grain / qpmax=69 / qpmin=0 / no-const-vbv / sar=1 / overscan=0 / videoformat=5 / range=1 / colorprim=2 / transfer=2 / colormatrix=2 / chromaloc=0 / display-window=0 / cll=0,0 / min-luma=0 / max-luma=1023 / log2-max-poc-lsb=8 / vui-timing-info / vui-hrd-info / no-concatenation / slices=1 / no-opt-qp-pps / no-opt-ref-list-length-pps / no-multi-pass-opt-rps / scenecut-bias=0.05 / hist-threshold=0.01 / no-opt-cu-delta-qp / no-aq-motion / no-hdr10 / no-hdr10-opt / no-dhdr10-opt / no-idr-recovery-sei / analysis-reuse-level=0 / analysis-save-reuse-level=0 / analysis-load-reuse-level=0 / scale-factor=0 / refine-intra=0 / refine-inter=0 / refine-mv=1 / refine-ctu-distortion=0 / no-limit-sao / ctu-info=0 / no-lowpass-dct / refine-analysis-type=0 / copy-pic=1 / max-ausize-factor=1.0 / no-dynamic-refine / no-single-sei / no-hevc-aq / no-svt / no-field / qp-adaptation-range=1.00 / no-scenecut-aware-qpconformance-window-offsets / right=0 / bottom=0 / decoder-max-rate=0
Language : English
Default : Yes
Forced : No
Color range : Full

Audio #1
ID : 2
Format : DTS XLL
Format/Info : Digital Theater Systems
Commercial name : DTS-HD Master Audio
Codec ID : A_DTS
Duration : 1 h 42 min
Bit rate mode : Variable
Bit rate : 2 109 kb/s
Channel(s) : 6 channels
Channel layout : C L R Ls Rs LFE
Sampling rate : 48.0 kHz
Frame rate : 93.750 FPS (512 SPF)
Bit depth : 24 bits
Compression mode : Lossless
Delay relative to video : 3 ms
Stream size : 1.52 GiB (12%)
Title : DTS-HD MA 5.1
Language : English
Default : Yes
Forced : No

Audio #2
ID : 3
Format : AC-3
Format/Info : Audio Coding 3
Commercial name : Dolby Digital
Codec ID : A_AC3
Duration : 1 h 42 min
Bit rate mode : Constant
Bit rate : 384 kb/s
Channel(s) : 6 channels
Channel layout : L R C LFE Ls Rs
Sampling rate : 48.0 kHz
Frame rate : 31.250 FPS (1536 SPF)
Compression mode : Lossy
Stream size : 283 MiB (2%)
Title : DD 5.1
Language : English
Service kind : Complete Main
Default : Yes
Forced : No

Text #1
ID : 4
Format : UTF-8
Codec ID : S_TEXT/UTF8
Codec ID/Info : UTF-8 Plain Text
Duration : 1 h 37 min
Bit rate : 79 b/s
Count of elements : 1295
Stream size : 57.3 KiB (0%)
Language : English
Default : Yes
Forced : No

Text #2
ID : 5
Format : UTF-8
Codec ID : S_TEXT/UTF8
Codec ID/Info : UTF-8 Plain Text
Duration : 1 h 42 min
Bit rate : 80 b/s
Count of elements : 1408
Stream size : 60.3 KiB (0%)
Title : SDH
Language : English
Default : No
Forced : No

Text #3
ID : 6
Format : PGS
Muxing mode : zlib
Codec ID : S_HDMV/PGS
Codec ID/Info : Picture based subtitle format used on BDs/HD-DVDs
Duration : 1 h 42 min
Bit rate : 62.9 kb/s
Count of elements : 2568
Stream size : 45.9 MiB (0%)
Title : English-PGS
Language : English
Default : No
Forced : No

Text #4
ID : 7
Format : PGS
Muxing mode : zlib
Codec ID : S_HDMV/PGS
Codec ID/Info : Picture based subtitle format used on BDs/HD-DVDs
Duration : 1 h 42 min
Bit rate : 66.9 kb/s
Count of elements : 2816
Stream size : 48.9 MiB (0%)
Title : English-SDH-PGS
Language : English
Default : No
Forced : No

Text #5
ID : 8
Format : PGS
Muxing mode : zlib
Codec ID : S_HDMV/PGS
Codec ID/Info : Picture based subtitle format used on BDs/HD-DVDs
Duration : 1 h 42 min
Bit rate : 46.0 kb/s
Count of elements : 2296
Stream size : 33.6 MiB (0%)
Title : Danish-PGS
Language : Danish
Default : No
Forced : No

Text #6
ID : 9
Format : PGS
Muxing mode : zlib
Codec ID : S_HDMV/PGS
Codec ID/Info : Picture based subtitle format used on BDs/HD-DVDs
Duration : 1 h 42 min
Bit rate : 56.5 kb/s
Count of elements : 2362
Stream size : 41.3 MiB (0%)
Title : German-PGS
Language : German
Default : No
Forced : No

Text #7
ID : 10
Format : PGS
Muxing mode : zlib
Codec ID : S_HDMV/PGS
Codec ID/Info : Picture based subtitle format used on BDs/HD-DVDs
Duration : 1 h 42 min
Bit rate : 48.5 kb/s
Count of elements : 2366
Stream size : 35.4 MiB (0%)
Title : Spanish-PGS
Language : Spanish
Default : No
Forced : No

Text #8
ID : 11
Format : PGS
Muxing mode : zlib
Codec ID : S_HDMV/PGS
Codec ID/Info : Picture based subtitle format used on BDs/HD-DVDs
Duration : 1 h 42 min
Bit rate : 51.2 kb/s
Count of elements : 2582
Stream size : 37.4 MiB (0%)
Title : Spanish-PGS
Language : Spanish
Default : No
Forced : No

Text #9
ID : 12
Format : PGS
Muxing mode : zlib
Codec ID : S_HDMV/PGS
Codec ID/Info : Picture based subtitle format used on BDs/HD-DVDs
Duration : 1 h 42 min
Bit rate : 50.7 kb/s
Count of elements : 2326
Stream size : 37.0 MiB (0%)
Title : French-PGS
Language : French
Default : No
Forced : No

Text #10
ID : 13
Format : PGS
Muxing mode : zlib
Codec ID : S_HDMV/PGS
Codec ID/Info : Picture based subtitle format used on BDs/HD-DVDs
Duration : 1 h 42 min
Bit rate : 48.2 kb/s
Count of elements : 2374
Stream size : 35.2 MiB (0%)
Title : Italian-PGS
Language : Italian
Default : No
Forced : No

Text #11
ID : 14
Format : PGS
Muxing mode : zlib
Codec ID : S_HDMV/PGS
Codec ID/Info : Picture based subtitle format used on BDs/HD-DVDs
Duration : 1 h 42 min
Bit rate : 25.3 kb/s
Count of elements : 2646
Stream size : 18.5 MiB (0%)
Title : Korean-PGS
Language : Korean
Default : No
Forced : No

Text #12
ID : 15
Format : PGS
Muxing mode : zlib
Codec ID : S_HDMV/PGS
Codec ID/Info : Picture based subtitle format used on BDs/HD-DVDs
Duration : 1 h 42 min
Bit rate : 49.2 kb/s
Count of elements : 2130
Stream size : 35.9 MiB (0%)
Title : Dutch-PGS
Language : Dutch
Default : No
Forced : No

Text #13
ID : 16
Format : PGS
Muxing mode : zlib
Codec ID : S_HDMV/PGS
Codec ID/Info : Picture based subtitle format used on BDs/HD-DVDs
Duration : 1 h 42 min
Bit rate : 43.3 kb/s
Count of elements : 2406
Stream size : 31.6 MiB (0%)
Title : Norwegian-PGS
Language : Norwegian
Default : No
Forced : No

Text #14
ID : 17
Format : PGS
Muxing mode : zlib
Codec ID : S_HDMV/PGS
Codec ID/Info : Picture based subtitle format used on BDs/HD-DVDs
Duration : 1 h 42 min
Bit rate : 45.7 kb/s
Count of elements : 2386
Stream size : 33.4 MiB (0%)
Title : Finnish-PGS
Language : Finnish
Default : No
Forced : No

Text #15
ID : 18
Format : PGS
Muxing mode : zlib
Codec ID : S_HDMV/PGS
Codec ID/Info : Picture based subtitle format used on BDs/HD-DVDs
Duration : 1 h 42 min
Bit rate : 45.5 kb/s
Count of elements : 2080
Stream size : 33.4 MiB (0%)
Title : Swedish-PGS
Language : Swedish
Default : No
Forced : No

Text #16
ID : 19
Format : PGS
Muxing mode : zlib
Codec ID : S_HDMV/PGS
Codec ID/Info : Picture based subtitle format used on BDs/HD-DVDs
Duration : 1 h 38 min
Bit rate : 26.2 kb/s
Count of elements : 2416
Stream size : 18.5 MiB (0%)
Title : Japanese-PGS
Language : Japanese
Default : No
Forced : No

Menu
00:00:00.000 : en:Chapter 01
00:02:51.838 : en:Chapter 02
00:09:17.056 : en:Chapter 03
00:14:30.286 : en:Chapter 04
00:22:11.621 : en:Chapter 05
00:29:30.101 : en:Chapter 06
00:46:25.741 : en:Chapter 07
00:52:24.933 : en:Chapter 08
01:02:05.722 : en:Chapter 09
01:15:37.366 : en:Chapter 10
01:23:45.520 : en:Chapter 11
01:36:35.790 : en:Chapter 12
01:38:53.344 : en:Chapter 13
资源速度为零或资源敏感被和谐时,推荐使用qBittorrent等下载软件,有条件的推荐115更好的下载软件!

下载地址

游客,如果您要查看本帖隐藏内容请回复

游客,如果您要查看本帖隐藏内容请回复

游客,如果您要查看本帖隐藏内容请回复












上一篇:马尔科姆与玛丽(内封简繁中字 (2021) 4K高清版本下载
下一篇:比佛利山超级警探3 / Beverly.Hills.Cop.III (1994) 4K高清版本下载
回复

使用道具 举报

0

主题

1359

帖子

4091

积分

4K家园VIP

Rank: 9Rank: 9Rank: 9

积分
4091
发表于 2022-5-2 10:37:58 | 显示全部楼层
沙发位出租,
回复 支持 反对

使用道具 举报

3

主题

1344

帖子

4056

积分

4K家园VIP

Rank: 9Rank: 9Rank: 9

积分
4056
发表于 2022-5-2 11:03:00 | 显示全部楼层
前排顶,很好!
回复 支持 反对

使用道具 举报

37

主题

1508

帖子

4328

积分

4K家园VIP

Rank: 9Rank: 9Rank: 9

积分
4328
发表于 2022-5-2 17:42:32 | 显示全部楼层
我也来顶一下..
回复 支持 反对

使用道具 举报

2

主题

1734

帖子

4836

积分

4K家园VIP

Rank: 9Rank: 9Rank: 9

积分
4836
发表于 2022-5-2 22:09:06 | 显示全部楼层
求沙发
回复 支持 反对

使用道具 举报

1

主题

1379

帖子

3979

积分

4K家园VIP

Rank: 9Rank: 9Rank: 9

积分
3979
发表于 2022-5-2 22:34:32 | 显示全部楼层
我也是坐沙发的
回复 支持 反对

使用道具 举报

您需要登录后才可以回帖 登录 | 立即注册

本版积分规则

精彩图文
Archiver|手机版|TAG|Sitemap|新帖|专题|联系我们:邮箱: 4kjia.com@gmail.com   

4k家园   ©2019