[4K电影] 比佛利山超级警探3 / Beverly.Hills.Cop.III (1994) 4K高清版本下载

[复制链接]

1733

主题

1866

帖子

1万

积分

超级版主

Rank: 8Rank: 8

积分
14095
 楼主| 发表于 2022-5-2 10:42:54 | 显示全部楼层 |阅读模式
QQ图片20220502102109_副本.png

◎译  名 比佛利山超级警探3/妙探出差3/妙探出差第三集/妙探出更第三集/比佛利山警探3/霹雳炮3
◎片  名 Beverly Hills Cop III
◎年  代 1994
◎产  地 美国
◎类  别 喜剧 / 动作 / 惊悚 / 犯罪
◎语  言 英语
◎上映日期 1994-05-25
◎IMDb评分  5.5/10 from 80994 users
◎IMDb链接  https://www.imdb.com/title/tt0109254/
◎豆瓣评分 6.3/10 from 1028 users
◎豆瓣链接 https://movie.douban.com/subject/1301785/
◎片  长 104 分钟
◎导  演 约翰·兰迪斯 John Landis
◎编  剧 斯蒂芬·E.德·索萨 Steven E. de Souza / 达尼洛·巴赫 Danilo Bach / 小丹尼尔·皮特里 Daniel Petrie Jr.
◎主  演 艾迪·墨菲 Eddie Murphy
      乔恩·坦尼 Jon Tenney
      乔依·特拉沃塔 Joey Travolta
      哈蒂·温斯顿 Hattie Winston
      Tracy Melchior
      丹·马丁 Dan Martin
      Gregory McKinney
      Forry Smith
      Symba Smith
      阿尔比·塞尔兹尼克 Albie Selznick
      阿尔·梁 Al Leong
      David Parry
      小托马斯·罗萨莱斯 Thomas Rosales Jr.
      乔治·谢弗 George Schaefer
      Curtis Williams
      Joseph Quinn Simpkins
      Bill Taylor
      Daren Palacio
      James MacKinnon
      Ray Lykins
      Nick Hermz
      Tim Gilbert
      Ousaun Elam
      瑞克·艾弗里 Rick Avery
      亚蕾莉·阿里吉门德 Yareli Arizmendi
      Steven Banks
      Swa'vet Williams
      查尔斯·拉西·陈 Charles Rahi Chun
      鲍勃·米诺 Bob Minor
      乔纳森·赫尔南德斯 Jonathan Hernandez
      埃克托尔·埃利松多 Hector Elizondo
      约翰·萨克松 John Saxon
      玛莎·库利奇 Martha Coolidge
      Helen Martin
      祖德·莱茵霍尔德 Judge Reinhold
      理查德·谢尔曼 Richard M. Sherman
      彼得·梅达克 Peter Medak
      希瑟·伊丽莎白·帕克赫斯特 Heather Elizabeth Parkhurst
      特里萨·兰德尔 Theresa Randle
      约翰·辛格顿 John Singleton
      雷·哈里豪森 Ray Harryhausen
      史蒂芬·麦克哈蒂 Stephen McHattie
      Tino Insana
      梅多·威廉姆斯 Meadow Williams
      乔·丹特 Joe Dante
      罗伯特·谢尔曼 Robert B. Sherman
      Al Green
      菲利斯·戴维斯 Phyllis Davis
      Jerry Dunphy
      迈克尔·鲍文 Michael Bowen
      蒂莫西·卡哈特 Timothy Carhart
      Jennifer Cobb
      西奥多·博尔德雷斯 Theodore Borders
      Fred Asparagus
      布隆森·皮诺切特 Bronson Pinchot
      福里斯特·J·阿克曼 Forrest J. Ackerman
      朱莉·斯特兰 Julie Strain
      乔治·卢卡斯 George Lucas
      巴贝特·施罗德 Barbet Schroeder
      阿瑟·希勒 Arthur Hiller
      艾伦·扬 Alan Young


◎简  介

  我们的反常规干探艾索(艾迪?墨菲 Eddie Murphy 饰)又回来了!艾索身为底特律的刑警,却三番四次跑到了洛山矶去破案,这次也不例外。艾索被派遣调查一宗谋杀案,他发现了案中的一连串线索,顺藤摸瓜之下最终追踪到了洛山矶比佛利山上一个大型游乐场的主人。

  回到久违的洛山矶,艾索当然要找到前两集的最佳拍档――洛山矶刑警比利(祖德?莱茵霍尔德 Judge Reinhold 饰)。于是比利和艾索两人深入虎穴,直接来到了游乐场调查。没想到的是,游乐场主人在这里设置了重重障碍,面对他们的将是连场恶斗!

Video
ID : 1
Format : HEVC
Format/Info : High Efficiency Video Coding
Format profile : Main 10@L5@Main
HDR format : Dolby Vision, Version 1.0, dvhe.05.06, BL+RPU
Codec ID : dvhe
Codec ID/Info : High Efficiency Video Coding with Dolby Vision
Duration : 1 h 44 min
Bit rate : 14.9 Mb/s
Width : 3 840 pixels
Height : 2 160 pixels
Display aspect ratio : 16:9
Frame rate mode : Constant
Frame rate : 23.976 (24000/1001) FPS
Color space : YUV
Chroma subsampling : 4:2:0
Bit depth : 10 bits
Bits/(Pixel*Frame) : 0.075
Stream size : 10.8 GiB (97%)
Writing library : x265 3.4hy:[Linux][GCC 7.5.0][64 bit] 10bit
Encoding settings : cpuid=1111039 / frame-threads=6 / no-wpp / no-pmode / no-pme / no-psnr / no-ssim / log-level=2 / input-csp=1 / input-res=3840x2160 / interlace=0 / total-frames=0 / level-idc=0 / high-tier=1 / uhd-bd=0 / ref=4 / no-allow-non-conformance / repeat-headers / annexb / aud / hrd / info / hash=0 / no-temporal-layers / no-open-gop / min-keyint=48 / keyint=48 / gop-lookahead=0 / bframes=4 / b-adapt=2 / b-pyramid / bframe-bias=0 / rc-lookahead=48 / lookahead-slices=4 / scenecut=0 / hist-scenecut=0 / radl=0 / no-splice / no-intra-refresh / ctu=64 / min-cu-size=8 / rect / no-amp / max-tu-size=32 / tu-inter-depth=1 / tu-intra-depth=1 / limit-tu=0 / rdoq-level=2 / dynamic-rd=0.00 / no-ssim-rd / signhide / no-tskip / nr-intra=100 / nr-inter=400 / no-constrained-intra / strong-intra-smoothing / max-merge=3 / limit-refs=3 / limit-modes / me=3 / subme=3 / merange=57 / temporal-mvp / no-frame-dup / no-hme / weightp / no-weightb / no-analyze-src-pics / deblock=0:0 / sao / no-sao-non-deblock / rd=4 / selective-sao=4 / no-early-skip / rskip / no-fast-intra / no-tskip-fast / no-cu-lossless / no-b-intra / no-splitrd-skip / rdpenalty=0 / psy-rd=0.00 / psy-rdoq=1.00 / no-rd-refine / no-lossless / cbqpoffs=0 / crqpoffs=3 / rc=abr / bitrate=15000 / qcomp=0.60 / qpstep=4 / stats-write=0 / stats-read=2 / cplxblur=20.0 / qblur=0.5 / vbv-maxrate=18000 / vbv-bufsize=12000 / vbv-init=0.6 / vbv-end=0.6 / vbv-end-fr-adj=0.0 / ipratio=1.40 / pbratio=1.30 / aq-mode=2 / aq-strength=1.00 / cutree / zone-count=0 / no-strict-cbr / qg-size=32 / no-rc-grain / qpmax=69 / qpmin=0 / no-const-vbv / sar=1 / overscan=0 / videoformat=5 / range=1 / colorprim=2 / transfer=2 / colormatrix=2 / chromaloc=0 / display-window=0 / cll=0,0 / min-luma=0 / max-luma=1023 / log2-max-poc-lsb=8 / vui-timing-info / vui-hrd-info / no-concatenation / slices=1 / no-opt-qp-pps / no-opt-ref-list-length-pps / no-multi-pass-opt-rps / scenecut-bias=0.05 / hist-threshold=0.01 / no-opt-cu-delta-qp / no-aq-motion / no-hdr10 / no-hdr10-opt / no-dhdr10-opt / no-idr-recovery-sei / analysis-reuse-level=0 / analysis-save-reuse-level=0 / analysis-load-reuse-level=0 / scale-factor=0 / refine-intra=0 / refine-inter=0 / refine-mv=1 / refine-ctu-distortion=0 / no-limit-sao / ctu-info=0 / no-lowpass-dct / refine-analysis-type=0 / copy-pic=1 / max-ausize-factor=1.0 / no-dynamic-refine / no-single-sei / no-hevc-aq / no-svt / no-field / qp-adaptation-range=1.00 / no-scenecut-aware-qpconformance-window-offsets / right=0 / bottom=0 / decoder-max-rate=0
Default : Yes
Alternate group : 1
Encoded date : UTC 2022-05-01 15:48:09
Tagged date : UTC 2022-05-01 15:49:54
Color range : Full
Codec configuration box : hvcC+dvcC

Audio
ID : 2
Format : AC-3
Format/Info : Audio Coding 3
Commercial name : Dolby Digital
Codec ID : ac-3
Duration : 1 h 44 min
Bit rate mode : Constant
Bit rate : 384 kb/s
Maximum bit rate : 406 kb/s
Channel(s) : 6 channels
Channel layout : L R C LFE Ls Rs
Sampling rate : 48.0 kHz
Frame rate : 31.250 FPS (1536 SPF)
Compression mode : Lossy
Stream size : 286 MiB (3%)
Title : English
Language : English
Service kind : Complete Main
Default : Yes
Alternate group : 1
Tagged date : UTC 2022-05-01 15:49:54

Text
ID : 3
Format : Timed Text
Codec ID : tx3g
Duration : 1 h 43 min
Bit rate mode : Variable
Bit rate : 80 b/s
Stream size : 61.0 KiB (0%)
Title : English
Language : English
Forced : No
Encoded date : UTC 2022-05-01 15:49:54
Tagged date : UTC 2022-05-01 15:49:54
资源速度为零或资源敏感被和谐时,推荐使用qBittorrent等下载软件,有条件的推荐115更好的下载软件!

下载地址

游客,如果您要查看本帖隐藏内容请回复

游客,如果您要查看本帖隐藏内容请回复

游客,如果您要查看本帖隐藏内容请回复




上一篇:比佛利山超级警探2 / Beverly.Hills.Cop.II (1987) 4K高清版本下载
下一篇:黑色弥撒(内封简繁中字)/ Black Mass (2015) 4K高清版本下载
回复

使用道具 举报

2

主题

1158

帖子

3492

积分

4K家园VIP

Rank: 9Rank: 9Rank: 9

积分
3492
发表于 2022-5-2 10:42:58 | 显示全部楼层
介是神马?!!
回复 支持 反对

使用道具 举报

4

主题

1421

帖子

4099

积分

中级会员

Rank: 4

积分
4099
发表于 2022-5-3 17:39:06 | 显示全部楼层
这么强,支持楼主,佩服
回复 支持 反对

使用道具 举报

49

主题

1474

帖子

4248

积分

4K家园VIP

Rank: 9Rank: 9Rank: 9

积分
4248
发表于 2022-5-6 20:00:43 | 显示全部楼层
顶顶更健康
回复 支持 反对

使用道具 举报

您需要登录后才可以回帖 登录 | 立即注册

本版积分规则

精彩图文
Archiver|手机版|TAG|Sitemap|新帖|专题|联系我们:邮箱: 4kjia.com@gmail.com   

4k家园   ©2019