[4K电影] 雨果(内封简繁中字)/ Hugo (2011) 4K高清版本下载

[复制链接]

1733

主题

1866

帖子

1万

积分

超级版主

Rank: 8Rank: 8

积分
14095
 楼主| 发表于 2022-5-2 13:16:41 | 显示全部楼层 |阅读模式
本帖最后由 最爱4K哟 于 2022-5-2 13:34 编辑

QQ图片20220502131008_副本.png

◎译  名 雨果 / The Invention of Hugo Cabret / 发明男孩雨果 / 造梦的雨果 / 雨果·卡布里特的发明 / 雨果的冒险(台) / 雨果的巴黎奇幻历险(港) / 雨果的秘密
◎片  名 Hugo
◎年  代 2011
◎产  地 英国 / 美国 / 法国
◎类  别 剧情 / 儿童 / 奇幻 / 冒险
◎语  言 英语
◎上映日期 2011-11-23(美国) / 2012-05-31(中国大陆)
◎IMDb评分  7.5/10 from 319165
◎IMDb链接  https://www.imdb.com/title/tt0970179
◎豆瓣评分 7.7/10 from 186223 users
◎豆瓣链接 https://movie.douban.com/subject/2028677/
◎片  长 127分钟
◎导  演 马丁·斯科塞斯 Martin Scorsese
◎编  剧 约翰·洛根 John Logan / 布赖恩·塞尔兹尼克 Brian Selznick
◎主  演 阿沙·巴特菲尔德 Asa Butterfield
       科洛·莫瑞兹 Chloe Moretz
       本·金斯利 Ben Kingsley
       萨莎·拜伦·科恩 Sacha Baron Cohen
       裘德·洛 Jude Law
       雷·温斯顿 Ray Winstone
       克里斯托弗·李 Christopher Lee
       理查德·格雷弗斯 Richard Griffiths
       海伦·麦克洛瑞 Helen McCrory
       弗朗西斯·德·拉·图瓦 Frances de la Tour
       迈克尔·斯图巴 Michael Stuhlbarg
       艾米莉·莫迪默 Emily Mortimer
       马丁·斯科塞斯 Martin Scorsese



◎简  介

  小男孩雨果(阿沙·巴特菲尔德 Asa Butterfield 饰)天生机械控。他寄宿巴黎火车站钟楼,偶尔会去玩具店偷些零件,用来修补父亲(裘德·洛 Jude Law 饰)留下的机器人。一次行窃,他被店主乔治?梅里埃(本·金斯利 Ben Kingsley 饰)当场抓获,因 忌惮带猎狗的巡警(萨莎·拜伦·科恩 Sacha Baron Cohen 饰)只得就范。乔治拿走了雨果父亲的遗物——一本机械手册,令他心急如焚,他尾随至乔治家中,结识了养女伊莎贝拉(科洛·莫瑞兹 Chlo? Moretz 饰),他恳求她帮自己保住手册。而伊莎贝拉则觉得此事蹊跷,于是两人结伴探秘。修好的机器人作画的落款却显示乔治的名字,让他们疑心顿起。终于他们发现了乔治家中装满画作的神秘柜子,并在图书馆的电影书籍中发现了乔治的身世。一位知情人的显身,让他们的奇幻冒险更添神秘……
  本片根据布莱恩?瑟兹尼克的同名小说改编,是马丁?斯科塞斯的首部3D力作。

◎获奖情况

  第84届奥斯卡金像奖(2012)
  最佳影片(提名) 马丁·斯科塞斯 / 格拉汉姆·金
  最佳导演(提名) 马丁·斯科塞斯
  最佳改编剧本(提名) 约翰·洛根
  最佳摄影 罗伯特·理查森
  最佳剪辑(提名) 塞尔玛·斯昆梅克
  最佳视觉效果 本·格罗斯曼 / 亚历克斯·汉宁 / 乔斯·威廉姆斯 / 罗伯特·莱加托
  最佳混音 约翰·米奇利 / 汤姆·弗莱施曼
  最佳音效剪辑 菲利普·斯托克顿 / 尤金·吉尔蒂
  最佳艺术指导 弗朗西斯卡·罗·夏沃 / 丹提·费瑞提
  最佳服装设计(提名) 桑迪·鲍威尔
  最佳原创配乐(提名) 霍华德·肖

  第69届金球奖(2012)
  电影类 最佳剧情片(提名)
  电影类 最佳导演 马丁·斯科塞斯
  电影类 最佳原创配乐(提名) 霍华德·肖

  第56届意大利大卫奖(2012)
  最佳外语片(提名) 马丁·斯科塞斯

  第77届纽约影评人协会奖(2011)
  最佳影片(提名)
  最佳导演(提名) 马丁·斯科塞斯
  最佳摄影(提名) 罗伯特·理查森

  第17届美国评论家选择电影奖(2012)
  最佳影片(提名)
  最佳导演(提名) 马丁·斯科塞斯
  最佳青少年演员(提名) 阿萨·巴特菲尔德
  最佳改编剧本(提名) 约翰·洛根
  最佳摄影(提名) 罗伯特·理查森
  最佳剪辑(提名) 塞尔玛·斯昆梅克
  最佳配乐(提名) 霍华德·肖
  最佳美术指导 弗朗西斯卡·罗·夏沃 / 丹提·费瑞提
  最佳服装设计(提名) 桑迪·鲍威尔
  最佳音效(提名)
  最佳视觉效果(提名)

  第12届美国电影学会奖(2011)
  年度佳片

  第10届华盛顿影评人协会奖(2011)
  最佳影片(提名)
  最佳导演 马丁·斯科塞斯
  最佳改编剧本(提名) 约翰·洛根
  最佳群戏(提名)
  最佳摄影(提名) 罗伯特·理查森
  最佳配乐(提名) 霍华德·肖
  最佳艺术指导 弗朗西斯卡·罗·夏沃 / 丹提·费瑞提

  第32届波士顿影评人协会奖(2011)
  最佳影片(提名)
  最佳导演 马丁·斯科塞斯
  最佳摄影(提名) 罗伯特·理查森
  最佳剪辑(提名) 塞尔玛·斯昆梅克

  第16届圣地亚哥影评人协会奖(2011)
  最佳影片(提名)
  最佳导演(提名) 马丁·斯科塞斯
  最佳改编剧本(提名) 约翰·洛根
  最佳摄影(提名) 罗伯特·理查森
  最佳剪辑(提名) 塞尔玛·斯昆梅克
  最佳配乐(提名) 霍华德·肖
  最佳艺术指导 丹提·费瑞提

  第24届芝加哥影评人协会奖(2011)
  最佳影片(提名)
  最佳导演(提名) 马丁·斯科塞斯
  最佳改编剧本(提名) 约翰·洛根
  最佳摄影(提名) 罗伯特·理查森
  最佳原创配乐(提名) 霍华德·肖

  第45届堪萨斯影评人协会奖(2012)
  最佳科幻/恐怖片

  第11届凤凰城影评人协会奖(2011)
  最佳导演(提名) 马丁·斯科塞斯
  最佳改编剧本(提名) 约翰·洛根
  最佳摄影(提名) 罗伯特·理查森
  最佳服装设计(提名) 桑迪·鲍威尔
  最佳艺术指导 丹提·费瑞提
  最佳视觉效果
  最佳真人家庭电影(提名)
  最佳青年男演员(提名) 阿萨·巴特菲尔德
  最佳青年女演员(提名) 科洛·莫瑞兹
  十佳影片

  第20届东南影评人协会奖(2011)
  最佳导演 马丁·斯科塞斯
  最佳摄影(提名) 罗伯特·理查森
  十大佳片


Video
ID : 1
Format : HEVC
Format/Info : High Efficiency Video Coding
Format profile : Main 10@L5@High
HDR format : Dolby Vision, Version 1.0, dvhe.05.06, BL+RPU
Codec ID : V_MPEGH/ISO/HEVC
Duration : 2 h 6 min
Bit rate : 24.2 Mb/s
Width : 3 840 pixels
Height : 2 154 pixels
Display aspect ratio : 16:9
Frame rate mode : Constant
Frame rate : 23.976 (24000/1001) FPS
Color space : YUV
Chroma subsampling : 4:2:0
Bit depth : 10 bits
Bits/(Pixel*Frame) : 0.122
Stream size : 21.3 GiB (81%)
Default : Yes
Forced : No

Audio #1
ID : 2
ID in the original source medium : 4352 (0x1100)
Format : DTS XLL
Format/Info : Digital Theater Systems
Commercial name : DTS-HD Master Audio
Codec ID : A_DTS
Duration : 2 h 6 min
Bit rate mode : Variable
Bit rate : 4 894 kb/s
Channel(s) : 8 channels
Channel layout : C L R LFE Lb Rb Lss Rss
Sampling rate : 48.0 kHz
Frame rate : 93.750 FPS (512 SPF)
Bit depth : 24 bits
Compression mode : Lossless
Stream size : 4.32 GiB (16%)
Title : DTS-HD MA 7.1
Language : English
Default : Yes
Forced : No
Original source medium : Blu-ray

Audio #2
ID : 3
Format : AC-3
Format/Info : Audio Coding 3
Commercial name : Dolby Digital
Codec ID : A_AC3
Duration : 2 h 6 min
Bit rate mode : Constant
Bit rate : 384 kb/s
Channel(s) : 6 channels
Channel layout : L R C LFE Ls Rs
Sampling rate : 48.0 kHz
Frame rate : 31.250 FPS (1536 SPF)
Compression mode : Lossy
Stream size : 347 MiB (1%)
Title : British
Language : English
Service kind : Complete Main
Default : Yes
Forced : No

Text #1
ID : 4
Format : UTF-8
Codec ID : S_TEXT/UTF8
Codec ID/Info : UTF-8 Plain Text
Duration : 1 h 59 min
Bit rate : 40 b/s
Count of elements : 1161
Stream size : 35.9 KiB (0%)
Title : English British (CC)
Language : English
Default : Yes
Forced : No

Text #2
ID : 5
Format : UTF-8
Codec ID : S_TEXT/UTF8
Codec ID/Info : UTF-8 Plain Text
Duration : 1 h 58 min
Bit rate : 44 b/s
Count of elements : 1171
Stream size : 38.4 KiB (0%)
Title : Arabic
Language : Arabic
Default : No
Forced : No

Text #3
ID : 6
Format : UTF-8
Codec ID : S_TEXT/UTF8
Codec ID/Info : UTF-8 Plain Text
Duration : 1 h 57 min
Bit rate : 30 b/s
Count of elements : 1133
Stream size : 26.3 KiB (0%)
Title : 中文(简体)
Language : 中文
Default : No
Forced : No


Text #4
ID : 7
Format : UTF-8
Codec ID : S_TEXT/UTF8
Codec ID/Info : UTF-8 Plain Text
Duration : 1 h 57 min
Bit rate : 28 b/s
Count of elements : 956
Stream size : 24.7 KiB (0%)
Title : 中文(繁体)
Language : 中文
Default : No
Forced : No


Text #5
ID : 8
Format : UTF-8
Codec ID : S_TEXT/UTF8
Codec ID/Info : UTF-8 Plain Text
Duration : 1 h 57 min
Bit rate : 30 b/s
Count of elements : 938
Stream size : 26.7 KiB (0%)
Title : Czech
Language : Czech
Default : No
Forced : No

Text #6
ID : 9
Format : UTF-8
Codec ID : S_TEXT/UTF8
Codec ID/Info : UTF-8 Plain Text
Duration : 1 h 57 min
Bit rate : 33 b/s
Count of elements : 922
Stream size : 28.8 KiB (0%)
Title : Danish
Language : Danish
Default : No
Forced : No

Text #7
ID : 10
Format : UTF-8
Codec ID : S_TEXT/UTF8
Codec ID/Info : UTF-8 Plain Text
Duration : 1 h 57 min
Bit rate : 33 b/s
Count of elements : 958
Stream size : 29.2 KiB (0%)
Title : Finnish
Language : Finnish
Default : No
Forced : No

Text #8
ID : 11
Format : UTF-8
Codec ID : S_TEXT/UTF8
Codec ID/Info : UTF-8 Plain Text
Duration : 1 h 59 min
Bit rate : 38 b/s
Count of elements : 982
Stream size : 33.5 KiB (0%)
Title : French Canadian
Language : French
Default : No
Forced : No

Text #9
ID : 12
Format : UTF-8
Codec ID : S_TEXT/UTF8
Codec ID/Info : UTF-8 Plain Text
Duration : 1 h 57 min
Bit rate : 39 b/s
Count of elements : 960
Stream size : 33.8 KiB (0%)
Title : French European
Language : French
Default : No
Forced : No

Text #10
ID : 13
Format : UTF-8
Codec ID : S_TEXT/UTF8
Codec ID/Info : UTF-8 Plain Text
Duration : 1 h 57 min
Bit rate : 44 b/s
Count of elements : 948
Stream size : 38.7 KiB (0%)
Title : Hebrew
Language : Hebrew
Default : No
Forced : No

Text #11
ID : 14
Format : UTF-8
Codec ID : S_TEXT/UTF8
Codec ID/Info : UTF-8 Plain Text
Duration : 1 h 57 min
Bit rate : 90 b/s
Count of elements : 974
Stream size : 78.1 KiB (0%)
Title : Hindi
Language : Hindi
Default : No
Forced : No

Text #12
ID : 15
Format : UTF-8
Codec ID : S_TEXT/UTF8
Codec ID/Info : UTF-8 Plain Text
Duration : 1 h 57 min
Bit rate : 34 b/s
Count of elements : 1127
Stream size : 30.0 KiB (0%)
Title : Indonesian
Language : Indonesian
Default : No
Forced : No

Text #13
ID : 16
Format : UTF-8
Codec ID : S_TEXT/UTF8
Codec ID/Info : UTF-8 Plain Text
Duration : 1 h 57 min
Bit rate : 33 b/s
Count of elements : 938
Stream size : 28.7 KiB (0%)
Title : Korean
Language : Korean
Default : No
Forced : No

Text #14
ID : 17
Format : UTF-8
Codec ID : S_TEXT/UTF8
Codec ID/Info : UTF-8 Plain Text
Duration : 1 h 57 min
Bit rate : 32 b/s
Count of elements : 859
Stream size : 28.2 KiB (0%)
Title : Dutch
Language : Dutch
Default : No
Forced : No

Text #15
ID : 18
Format : UTF-8
Codec ID : S_TEXT/UTF8
Codec ID/Info : UTF-8 Plain Text
Duration : 1 h 57 min
Bit rate : 28 b/s
Count of elements : 914
Stream size : 24.3 KiB (0%)
Title : Norwegian
Language : Norwegian
Default : No
Forced : No

Text #16
ID : 19
Format : UTF-8
Codec ID : S_TEXT/UTF8
Codec ID/Info : UTF-8 Plain Text
Duration : 1 h 57 min
Bit rate : 30 b/s
Count of elements : 950
Stream size : 26.2 KiB (0%)
Title : Polish
Language : Polish
Default : No
Forced : No

Text #17
ID : 20
Format : UTF-8
Codec ID : S_TEXT/UTF8
Codec ID/Info : UTF-8 Plain Text
Duration : 1 h 57 min
Bit rate : 33 b/s
Count of elements : 950
Stream size : 29.3 KiB (0%)
Title : Portuguese European
Language : Portuguese
Default : No
Forced : No

Text #18
ID : 21
Format : UTF-8
Codec ID : S_TEXT/UTF8
Codec ID/Info : UTF-8 Plain Text
Duration : 1 h 57 min
Bit rate : 60 b/s
Count of elements : 976
Stream size : 52.0 KiB (0%)
Title : Russian
Language : Russian
Default : No
Forced : No

Text #19
ID : 22
Format : UTF-8
Codec ID : S_TEXT/UTF8
Codec ID/Info : UTF-8 Plain Text
Duration : 1 h 57 min
Bit rate : 35 b/s
Count of elements : 976
Stream size : 30.7 KiB (0%)
Title : Slovak
Language : Slovak
Default : No
Forced : No

Text #20
ID : 23
Format : UTF-8
Codec ID : S_TEXT/UTF8
Codec ID/Info : UTF-8 Plain Text
Duration : 1 h 57 min
Bit rate : 33 b/s
Count of elements : 926
Stream size : 28.8 KiB (0%)
Title : Swedish
Language : Swedish
Default : No
Forced : No

Text #21
ID : 24
Format : UTF-8
Codec ID : S_TEXT/UTF8
Codec ID/Info : UTF-8 Plain Text
Duration : 1 h 57 min
Bit rate : 34 b/s
Count of elements : 1117
Stream size : 29.4 KiB (0%)
Title : Turkish
Language : Turkish
Default : No
Forced : No

Text #22
ID : 25
Format : UTF-8
Codec ID : S_TEXT/UTF8
Codec ID/Info : UTF-8 Plain Text
Duration : 1 h 57 min
Bit rate : 27 b/s
Count of elements : 1129
Stream size : 23.3 KiB (0%)
Title : 中文(繁体)
Language : 中文
Default : No
Forced : No


Text #23
ID : 26
ID in the original source medium : 4614 (0x1206)
Format : PGS
Muxing mode : zlib
Codec ID : S_HDMV/PGS
Codec ID/Info : Picture based subtitle format used on BDs/HD-DVDs
Duration : 2 h 4 min
Bit rate : 28.2 kb/s
Count of elements : 1950
Stream size : 25.0 MiB (0%)
Title : PGS
Language : English
Default : No
Forced : No
Original source medium : Blu-ray

Text #24
ID : 27
ID in the original source medium : 4608 (0x1200)
Format : PGS
Muxing mode : zlib
Codec ID : S_HDMV/PGS
Codec ID/Info : Picture based subtitle format used on BDs/HD-DVDs
Duration : 2 h 4 min
Bit rate : 27.9 kb/s
Count of elements : 1950
Stream size : 24.7 MiB (0%)
Title : PGS
Language : Indonesian
Default : No
Forced : No
Original source medium : Blu-ray

Text #25
ID : 28
ID in the original source medium : 4609 (0x1201)
Format : PGS
Muxing mode : zlib
Codec ID : S_HDMV/PGS
Codec ID/Info : Picture based subtitle format used on BDs/HD-DVDs
Duration : 2 h 4 min
Bit rate : 30.7 kb/s
Count of elements : 1950
Stream size : 27.2 MiB (0%)
Title : PGS
Language : Malay
Default : No
Forced : No
Original source medium : Blu-ray

Text #26
ID : 29
ID in the original source medium : 4610 (0x1202)
Format : PGS
Muxing mode : zlib
Codec ID : S_HDMV/PGS
Codec ID/Info : Picture based subtitle format used on BDs/HD-DVDs
Duration : 2 h 4 min
Bit rate : 19.3 kb/s
Count of elements : 2260
Stream size : 17.1 MiB (0%)
Title : PGS
Language : 中文
Default : No
Forced : No
Original source medium : Blu-ray


Text #27
ID : 30
ID in the original source medium : 4611 (0x1203)
Format : PGS
Muxing mode : zlib
Codec ID : S_HDMV/PGS
Codec ID/Info : Picture based subtitle format used on BDs/HD-DVDs
Duration : 2 h 4 min
Bit rate : 23.7 kb/s
Count of elements : 1878
Stream size : 21.0 MiB (0%)
Title : PGS
Language : Czech
Default : No
Forced : No
Original source medium : Blu-ray

Text #28
ID : 31
ID in the original source medium : 4612 (0x1204)
Format : PGS
Muxing mode : zlib
Codec ID : S_HDMV/PGS
Codec ID/Info : Picture based subtitle format used on BDs/HD-DVDs
Duration : 2 h 4 min
Bit rate : 27.1 kb/s
Count of elements : 1884
Stream size : 24.0 MiB (0%)
Title : PGS
Language : Greek
Default : No
Forced : No
Original source medium : Blu-ray

Text #29
ID : 32
ID in the original source medium : 4613 (0x1205)
Format : PGS
Muxing mode : zlib
Codec ID : S_HDMV/PGS
Codec ID/Info : Picture based subtitle format used on BDs/HD-DVDs
Duration : 2 h 4 min
Bit rate : 27.3 kb/s
Count of elements : 1904
Stream size : 24.2 MiB (0%)
Title : PGS
Language : Estonian
Default : No
Forced : No
Original source medium : Blu-ray

Text #30
ID : 33
ID in the original source medium : 4615 (0x1207)
Format : PGS
Muxing mode : zlib
Codec ID : S_HDMV/PGS
Codec ID/Info : Picture based subtitle format used on BDs/HD-DVDs
Duration : 2 h 4 min
Bit rate : 17.6 kb/s
Count of elements : 1898
Stream size : 15.6 MiB (0%)
Title : PGS
Language : Hebrew
Default : No
Forced : No
Original source medium : Blu-ray

Text #31
ID : 34
ID in the original source medium : 4616 (0x1208)
Format : PGS
Muxing mode : zlib
Codec ID : S_HDMV/PGS
Codec ID/Info : Picture based subtitle format used on BDs/HD-DVDs
Duration : 2 h 4 min
Bit rate : 19.6 kb/s
Count of elements : 1950
Stream size : 17.4 MiB (0%)
Title : PGS
Language : Hindi
Default : No
Forced : No
Original source medium : Blu-ray

Text #32
ID : 35
ID in the original source medium : 4617 (0x1209)
Format : PGS
Muxing mode : zlib
Codec ID : S_HDMV/PGS
Codec ID/Info : Picture based subtitle format used on BDs/HD-DVDs
Duration : 2 h 4 min
Bit rate : 27.7 kb/s
Count of elements : 1950
Stream size : 24.6 MiB (0%)
Title : PGS
Language : Croatian
Default : No
Forced : No
Original source medium : Blu-ray

Text #33
ID : 36
ID in the original source medium : 4618 (0x120A)
Format : PGS
Muxing mode : zlib
Codec ID : S_HDMV/PGS
Codec ID/Info : Picture based subtitle format used on BDs/HD-DVDs
Duration : 2 h 4 min
Bit rate : 25.3 kb/s
Count of elements : 1880
Stream size : 22.5 MiB (0%)
Title : PGS
Language : Icelandic
Default : No
Forced : No
Original source medium : Blu-ray

Text #34
ID : 37
ID in the original source medium : 4619 (0x120B)
Format : PGS
Muxing mode : zlib
Codec ID : S_HDMV/PGS
Codec ID/Info : Picture based subtitle format used on BDs/HD-DVDs
Duration : 2 h 4 min
Bit rate : 18.3 kb/s
Count of elements : 1878
Stream size : 16.2 MiB (0%)
Title : PGS
Language : Korean
Default : No
Forced : No
Original source medium : Blu-ray

Text #35
ID : 38
ID in the original source medium : 4620 (0x120C)
Format : PGS
Muxing mode : zlib
Codec ID : S_HDMV/PGS
Codec ID/Info : Picture based subtitle format used on BDs/HD-DVDs
Duration : 2 h 4 min
Bit rate : 27.0 kb/s
Count of elements : 1950
Stream size : 23.9 MiB (0%)
Title : PGS
Language : Latvian
Default : No
Forced : No
Original source medium : Blu-ray

Text #36
ID : 39
ID in the original source medium : 4621 (0x120D)
Format : PGS
Muxing mode : zlib
Codec ID : S_HDMV/PGS
Codec ID/Info : Picture based subtitle format used on BDs/HD-DVDs
Duration : 2 h 4 min
Bit rate : 26.2 kb/s
Count of elements : 1950
Stream size : 23.3 MiB (0%)
Title : PGS
Language : Lithuanian
Default : No
Forced : No
Original source medium : Blu-ray

Text #37
ID : 40
ID in the original source medium : 4622 (0x120E)
Format : PGS
Muxing mode : zlib
Codec ID : S_HDMV/PGS
Codec ID/Info : Picture based subtitle format used on BDs/HD-DVDs
Duration : 2 h 4 min
Bit rate : 27.2 kb/s
Count of elements : 1952
Stream size : 24.1 MiB (0%)
Title : PGS
Language : Hungarian
Default : No
Forced : No
Original source medium : Blu-ray

Text #38
ID : 41
ID in the original source medium : 4623 (0x120F)
Format : PGS
Muxing mode : zlib
Codec ID : S_HDMV/PGS
Codec ID/Info : Picture based subtitle format used on BDs/HD-DVDs
Duration : 2 h 4 min
Bit rate : 20.1 kb/s
Count of elements : 1914
Stream size : 17.9 MiB (0%)
Title : PGS
Language : 中文
Default : No
Forced : No
Original source medium : Blu-ray


Text #39
ID : 42
ID in the original source medium : 4624 (0x1210)
Format : PGS
Muxing mode : zlib
Codec ID : S_HDMV/PGS
Codec ID/Info : Picture based subtitle format used on BDs/HD-DVDs
Duration : 2 h 3 min
Bit rate : 24.3 kb/s
Count of elements : 1902
Stream size : 21.6 MiB (0%)
Title : PGS
Language : Polish
Default : No
Forced : No
Original source medium : Blu-ray

Text #40
ID : 43
ID in the original source medium : 4625 (0x1211)
Format : PGS
Muxing mode : zlib
Codec ID : S_HDMV/PGS
Codec ID/Info : Picture based subtitle format used on BDs/HD-DVDs
Duration : 2 h 4 min
Bit rate : 27.4 kb/s
Count of elements : 1900
Stream size : 24.3 MiB (0%)
Title : PGS
Language : Portuguese
Default : No
Forced : No
Original source medium : Blu-ray

Text #41
ID : 44
ID in the original source medium : 4626 (0x1212)
Format : PGS
Muxing mode : zlib
Codec ID : S_HDMV/PGS
Codec ID/Info : Picture based subtitle format used on BDs/HD-DVDs
Duration : 2 h 4 min
Bit rate : 28.8 kb/s
Count of elements : 1952
Stream size : 25.6 MiB (0%)
Title : PGS
Language : Russian
Default : No
Forced : No
Original source medium : Blu-ray

Text #42
ID : 45
ID in the original source medium : 4627 (0x1213)
Format : PGS
Muxing mode : zlib
Codec ID : S_HDMV/PGS
Codec ID/Info : Picture based subtitle format used on BDs/HD-DVDs
Duration : 2 h 4 min
Bit rate : 25.8 kb/s
Count of elements : 1950
Stream size : 22.9 MiB (0%)
Title : PGS
Language : Romanian
Default : No
Forced : No
Original source medium : Blu-ray

Text #43
ID : 46
ID in the original source medium : 4628 (0x1214)
Format : PGS
Muxing mode : zlib
Codec ID : S_HDMV/PGS
Codec ID/Info : Picture based subtitle format used on BDs/HD-DVDs
Duration : 2 h 4 min
Bit rate : 20.7 kb/s
Count of elements : 1903
Stream size : 18.3 MiB (0%)
Title : PGS
Language : 中文
Default : No
Forced : No
Original source medium : Blu-ray


Text #44
ID : 47
ID in the original source medium : 4629 (0x1215)
Format : PGS
Muxing mode : zlib
Codec ID : S_HDMV/PGS
Codec ID/Info : Picture based subtitle format used on BDs/HD-DVDs
Duration : 2 h 4 min
Bit rate : 20.3 kb/s
Count of elements : 1866
Stream size : 18.0 MiB (0%)
Title : PGS
Language : Slovenian
Default : No
Forced : No
Original source medium : Blu-ray

Text #45
ID : 48
ID in the original source medium : 4630 (0x1216)
Format : PGS
Muxing mode : zlib
Codec ID : S_HDMV/PGS
Codec ID/Info : Picture based subtitle format used on BDs/HD-DVDs
Duration : 2 h 4 min
Bit rate : 27.3 kb/s
Count of elements : 1950
Stream size : 24.2 MiB (0%)
Title : PGS
Language : Slovak
Default : No
Forced : No
Original source medium : Blu-ray

Text #46
ID : 49
ID in the original source medium : 4631 (0x1217)
Format : PGS
Muxing mode : zlib
Codec ID : S_HDMV/PGS
Codec ID/Info : Picture based subtitle format used on BDs/HD-DVDs
Duration : 2 h 4 min
Bit rate : 26.1 kb/s
Count of elements : 1894
Stream size : 23.2 MiB (0%)
Title : PGS
Language : Serbian
Default : No
Forced : No
Original source medium : Blu-ray

Text #47
ID : 50
ID in the original source medium : 4632 (0x1218)
Format : PGS
Muxing mode : zlib
Codec ID : S_HDMV/PGS
Codec ID/Info : Picture based subtitle format used on BDs/HD-DVDs
Duration : 2 h 4 min
Bit rate : 21.3 kb/s
Count of elements : 1886
Stream size : 18.9 MiB (0%)
Title : PGS
Language : Thai
Default : No
Forced : No
Original source medium : Blu-ray

Text #48
ID : 51
ID in the original source medium : 4633 (0x1219)
Format : PGS
Muxing mode : zlib
Codec ID : S_HDMV/PGS
Codec ID/Info : Picture based subtitle format used on BDs/HD-DVDs
Duration : 2 h 4 min
Bit rate : 27.7 kb/s
Count of elements : 1950
Stream size : 24.6 MiB (0%)
Title : PGS
Language : Bulgarian
Default : No
Forced : No
Original source medium : Blu-ray

Text #49
ID : 52
ID in the original source medium : 4634 (0x121A)
Format : PGS
Muxing mode : zlib
Codec ID : S_HDMV/PGS
Codec ID/Info : Picture based subtitle format used on BDs/HD-DVDs
Duration : 2 h 4 min
Bit rate : 25.4 kb/s
Count of elements : 1952
Stream size : 22.5 MiB (0%)
Title : PGS
Language : Ukrainian
Default : No
Forced : No
Original source medium : Blu-ray

Menu
00:00:00.000 : en:Chapter 1
00:09:36.000 : en:Chapter 2
00:17:21.000 : en:Chapter 3
00:23:33.000 : en:Chapter 4
00:30:35.000 : en:Chapter 5
00:38:27.000 : en:Chapter 6
00:47:37.000 : en:Chapter 7
00:55:38.000 : en:Chapter 8
01:03:44.000 : en:Chapter 9
01:12:47.000 : en:Chapter 10
01:20:00.000 : en:Chapter 11
01:27:11.000 : en:Chapter 12
01:33:04.000 : en:Chapter 13
01:42:42.000 : en:Chapter 14
01:53:48.000 : en:Chapter 15
02:00:00.000 : en:Chapter 16

资源速度为零或资源敏感被和谐时,推荐使用qBittorrent等下载软件,有条件的推荐115更好的下载软件!

下载地址

游客,如果您要查看本帖隐藏内容请回复

游客,如果您要查看本帖隐藏内容请回复

游客,如果您要查看本帖隐藏内容请回复





上一篇:焦点(内封简繁中字)/ Focus (2015)4K高清版本下载
下一篇:黑夜造访 / It Comes at Night (2017) 4K高清版本下载
回复

使用道具 举报

2

主题

1348

帖子

3880

积分

4K家园VIP

Rank: 9Rank: 9Rank: 9

积分
3880
发表于 2022-5-2 13:16:45 | 显示全部楼层
为保住菊花,这个一定得回复!
回复 支持 反对

使用道具 举报

0

主题

2

帖子

9

积分

新手上路

Rank: 1

积分
9
发表于 2022-5-2 22:08:42 | 显示全部楼层
感谢楼主分享
回复 支持 反对

使用道具 举报

2

主题

1367

帖子

3891

积分

4K家园VIP

Rank: 9Rank: 9Rank: 9

积分
3891
发表于 2022-5-6 09:29:26 来自手机 | 显示全部楼层
支持支持再支持
回复 支持 反对

使用道具 举报

0

主题

1348

帖子

4054

积分

4K家园VIP

Rank: 9Rank: 9Rank: 9

积分
4054
发表于 2022-5-8 15:44:01 来自手机 | 显示全部楼层
我也是坐沙发的
回复 支持 反对

使用道具 举报

201

主题

1737

帖子

4773

积分

4K家园VIP

Rank: 9Rank: 9Rank: 9

积分
4773
发表于 2022-5-9 23:09:21 来自手机 | 显示全部楼层
学习下
回复 支持 反对

使用道具 举报

40

主题

1531

帖子

4391

积分

4K家园VIP

Rank: 9Rank: 9Rank: 9

积分
4391
发表于 2022-5-10 18:56:47 | 显示全部楼层
为毛老子总也抢不到沙发?!!
回复 支持 反对

使用道具 举报

您需要登录后才可以回帖 登录 | 立即注册

本版积分规则

精彩图文
Archiver|手机版|TAG|Sitemap|新帖|专题|联系我们:邮箱: 4kjia.com@gmail.com   

4k家园   ©2019