[4K电影] 玻璃城堡 / The Glass Castle (2017) 4K高清版本下载

[复制链接]

1735

主题

1868

帖子

1万

积分

超级版主

Rank: 8Rank: 8

积分
14105
 楼主| 发表于 2022-5-3 11:42:32 | 显示全部楼层 |阅读模式
本帖最后由 最爱4K哟 于 2022-5-3 12:04 编辑

QQ图片20220503115622_副本.png

◎译  名 玻璃城堡
◎片  名 The Glass Castle
◎年  代 2017
◎产  地 美国
◎类  别 剧情/家庭/传记
◎语  言 英语
◎上映日期 2017-08-11(美国)
◎IMDb评分  7.1/10 from 33185 users
◎IMDb链接  https://www.imdb.com/title/tt2378507/
◎豆瓣评分 7.6/10 from 864/8 users
◎豆瓣链接 https://douban.com/subject/10743963/
◎片  长 127分钟
◎导  演 德斯汀·克里顿 Destin Cretton
◎编  剧 德斯汀·克里顿 Destin Cretton / 安德鲁·兰纳姆 Andrew Lanham / 珍妮特·沃尔斯 Jeannette Walls
◎主  演 布丽·拉尔森 Brie Larson
       伍迪·哈里森 Woody Harrelson
       娜奥米·沃茨 Naomi Watts
       艾拉·安德森 Ella Anderson
       钱德勒·海德 Chandler Head
       马克思·格林菲尔德 Max Greenfield
       乔希·卡拉斯 Josh Caras
       查理·肖特韦尔 Charlie Shotwell
       伊恩·阿米蒂奇 Iain Armitage
       莎拉·斯努克 Sarah Snook
       萨迪·辛克 Sadie Sink
       奥利维亚·凯特·莱斯 Olivia Kate Rice
       布里盖特·伦迪·佩恩 Brigette Lundy-Paine
       席瑞·克鲁克斯 Shree Crooks
       伊登·格雷斯·雷德菲尔德 Eden Grace Redfield
       罗宾·巴特利特 Robin Bartlett
       乔·平格 Joe Pingue
       多米尼克·博加特 Dominic Bogart


◎简  介


  萝丝(娜奥米·沃茨 Naomi Watts 饰)是一名才华横溢的画家,虽然她拥有着价值百万美金的土地,但是却依然选择去过食不果腹居无定所的流浪生活。这样一个女人,嫁给了一个名为雷克斯(伍迪·哈里森 Woody Harrelson 饰)的男人,雷克斯比萝丝还要离谱,是一个整天酒瓶不离手的空想主义者。两人生了四个孩子珍妮特(布丽·拉尔森 Brie Larson 饰)、萝莉(萨拉·斯诺克 Sarah Snook 饰)、布兰(Josh Barclay Caras 饰)和莫林(布里盖特·伦迪-佩恩 Brigette Lundy-Paine 饰)。

  虽然这对父母非常的不靠谱,但四个孩子们生长在如此自由的家庭氛围里,享受到了快乐的童年。可是,随着年岁的增长,这个家庭的弊端逐渐显现,孩子们很快就发现,他们必须学会互相照料。

Video
ID : 1
Format : HEVC
Format/Info : High Efficiency Video Coding
Format profile : Main 10@L5@Main
HDR format : SMPTE ST 2086, HDR10 compatible
Codec ID : V_MPEGH/ISO/HEVC
Duration : 2 h 6 min
Bit rate : 15.0 Mb/s
Width : 3 840 pixels
Height : 2 160 pixels
Display aspect ratio : 16:9
Frame rate mode : Constant
Frame rate : 23.976 (24000/1001) FPS
Original frame rate : 23.976 (23976/1000) FPS
Color space : YUV
Chroma subsampling : 4:2:0 (Type 2)
Bit depth : 10 bits
Bits/(Pixel*Frame) : 0.075
Stream size : 13.3 GiB (81%)
Writing library : x265 3.0:[Linux][GCC 4.8.5][64 bit] 10bit
Encoding settings : cpuid=1111039 / frame-threads=6 / wpp / no-pmode / no-pme / no-psnr / no-ssim / log-level=2 / input-csp=1 / input-res=3840x2160 / interlace=0 / total-frames=0 / level-idc=50 / high-tier=1 / uhd-bd=0 / ref=3 / no-allow-non-conformance / repeat-headers / annexb / no-aud / no-hrd / info / hash=0 / no-temporal-layers / no-open-gop / min-keyint=48 / keyint=48 / gop-lookahead=0 / bframes=4 / b-adapt=2 / b-pyramid / bframe-bias=0 / rc-lookahead=48 / lookahead-slices=4 / scenecut=40 / radl=0 / no-splice / no-intra-refresh / ctu=64 / min-cu-size=8 / rect / no-amp / max-tu-size=32 / tu-inter-depth=1 / tu-intra-depth=1 / limit-tu=0 / rdoq-level=2 / dynamic-rd=0.00 / no-ssim-rd / signhide / no-tskip / nr-intra=0 / nr-inter=0 / no-constrained-intra / strong-intra-smoothing / max-merge=3 / limit-refs=3 / limit-modes / me=2 / subme=3 / merange=57 / temporal-mvp / weightp / no-weightb / no-analyze-src-pics / deblock=0:0 / no-sao / no-sao-non-deblock / rd=4 / no-early-skip / no-rskip / no-fast-intra / no-tskip-fast / no-cu-lossless / no-b-intra / no-splitrd-skip / rdpenalty=0 / psy-rd=4.00 / psy-rdoq=10.00 / no-rd-refine / no-lossless / cbqpoffs=0 / crqpoffs=0 / rc=abr / bitrate=15000 / qcomp=0.60 / qpstep=1 / stats-write=0 / stats-read=0 / vbv-maxrate=22500 / vbv-bufsize=22500 / vbv-init=0.9 / ipratio=1.10 / pbratio=1.00 / aq-mode=0 / aq-strength=0.00 / no-cutree / zone-count=0 / no-strict-cbr / qg-size=32 / rc-grain / qpmax=69 / qpmin=0 / const-vbv / sar=1 / overscan=0 / videoformat=5 / range=0 / colorprim=9 / transfer=16 / colormatrix=9 / chromaloc=1 / chromaloc-top=2 / chromaloc-bottom=2 / display-window=0 / master-display=G(13250,34500)B(7500,3000)R(34000,16000)WP(15635,16450)L(40000000,50) / max-cll=3361,440 / min-luma=0 / max-luma=1023 / log2-max-poc-lsb=8 / vui-timing-info / vui-hrd-info / slices=1 / no-opt-qp-pps / no-opt-ref-list-length-pps / no-multi-pass-opt-rps / scenecut-bias=0.05 / no-opt-cu-delta-qp / no-aq-motion / hdr / no-hdr-opt / no-dhdr10-opt / no-idr-recovery-sei / analysis-reuse-level=5 / scale-factor=0 / refine-intra=0 / refine-inter=0 / refine-mv=0 / refine-ctu-distortion=0 / no-limit-sao / ctu-info=0 / no-lowpass-dct / refine-analysis-type=0 / copy-pic=1 / max-ausize-factor=1.0 / no-dynamic-refine / no-single-sei / no-hevc-aq / qp-adaptation-range=1.00
Default : Yes
Forced : No
Color range : Limited
Color primaries : BT.2020
Transfer characteristics : PQ
Matrix coefficients : BT.2020 non-constant
Mastering display color primaries : Display P3
Mastering display luminance : min: 0.0050 cd/m2, max: 4000 cd/m2
Maximum Content Light Level : 3361 cd/m2
Maximum Frame-Average Light Level : 440 cd/m2

Audio #1
ID : 2
Format : MLP FBA
Format/Info : Meridian Lossless Packing FBA
Commercial name : Dolby TrueHD
Codec ID : A_TRUEHD
Duration : 2 h 6 min
Bit rate mode : Variable
Bit rate : 2 865 kb/s
Maximum bit rate : 4 608 kb/s
Channel(s) : 8 channels
Channel layout : L R C LFE Ls Rs Lb Rb
Sampling rate : 48.0 kHz
Frame rate : 1 200.000 FPS (40 SPF)
Compression mode : Lossless
Stream size : 2.54 GiB (15%)
Title : TrueHD 7.1
Language : English
Default : Yes
Forced : No

Audio #2
ID : 3
Format : AC-3
Format/Info : Audio Coding 3
Commercial name : Dolby Digital
Codec ID : A_AC3
Duration : 2 h 6 min
Bit rate mode : Constant
Bit rate : 640 kb/s
Channel(s) : 6 channels
Channel layout : L R C LFE Ls Rs
Sampling rate : 48.0 kHz
Frame rate : 31.250 FPS (1536 SPF)
Compression mode : Lossy
Stream size : 581 MiB (3%)
Title : DD 5.1
Language : English
Service kind : Complete Main
Default : No
Forced : No

Text #1
ID : 4
Format : UTF-8
Codec ID : S_TEXT/UTF8
Codec ID/Info : UTF-8 Plain Text
Duration : 2 h 1 min
Bit rate : 61 b/s
Count of elements : 1640
Stream size : 55.1 KiB (0%)
Language : English
Default : Yes
Forced : No

Text #2
ID : 5
Format : UTF-8
Codec ID : S_TEXT/UTF8
Codec ID/Info : UTF-8 Plain Text
Duration : 2 h 1 min
Bit rate : 68 b/s
Count of elements : 1793
Stream size : 60.8 KiB (0%)
Title : SDH
Language : English
Default : No
Forced : No

Menu
00:00:00.000 : en:00:00:00.000
00:08:15.453 : en:00:08:15.453
00:15:33.182 : en:00:15:33.182
00:21:33.292 : en:00:21:33.292
00:29:25.931 : en:00:29:25.931
00:37:11.187 : en:00:37:11.187
00:43:54.840 : en:00:43:54.840
00:51:53.485 : en:00:51:53.485
01:00:29.334 : en:01:00:29.334
01:07:59.659 : en:01:07:59.659
01:14:05.816 : en:01:14:05.816
01:24:52.504 : en:01:24:52.504
01:29:27.696 : en:01:29:27.696
01:37:47.236 : en:01:37:47.236
01:45:53.263 : en:01:45:53.263
01:55:49.484 : en:01:55:49.484

资源速度为零或资源敏感被和谐时,推荐使用qBittorrent等下载软件,有条件的推荐115更好的下载软件!

下载地址


游客,如果您要查看本帖隐藏内容请回复

游客,如果您要查看本帖隐藏内容请回复

游客,如果您要查看本帖隐藏内容请回复

游客,如果您要查看本帖隐藏内容请回复




.

上一篇:[90届奥斯卡] 灾难艺术家/The Disaster Artist (2017) 4K高清版本下载
下一篇:双虎屠龙/The.Man.Who.Shot.Liberty.Valance (1962) 4K高清版本下载
回复

使用道具 举报

3

主题

1393

帖子

4021

积分

4K家园VIP

Rank: 9Rank: 9Rank: 9

积分
4021
发表于 2022-5-3 11:42:38 | 显示全部楼层
发发呆,回回帖,工作结束~
回复 支持 反对

使用道具 举报

0

主题

1225

帖子

3689

积分

4K家园VIP

Rank: 9Rank: 9Rank: 9

积分
3689
发表于 2022-5-3 11:42:38 | 显示全部楼层
你们要是有4K资源记得分享,别小气
回复 支持 反对

使用道具 举报

2

主题

1678

帖子

4622

积分

4K家园VIP

Rank: 9Rank: 9Rank: 9

积分
4622
发表于 2022-5-3 21:51:40 来自手机 | 显示全部楼层
顶起顶起顶起
回复 支持 反对

使用道具 举报

0

主题

8

帖子

116

积分

新手上路

Rank: 1

积分
116
发表于 2022-5-4 08:37:17 | 显示全部楼层
22222
回复

使用道具 举报

1

主题

1344

帖子

4050

积分

4K家园VIP

Rank: 9Rank: 9Rank: 9

积分
4050
发表于 2022-5-5 01:08:13 | 显示全部楼层
体验下4K版的
回复 支持 反对

使用道具 举报

51

主题

1574

帖子

4538

积分

4K家园VIP

Rank: 9Rank: 9Rank: 9

积分
4538
发表于 2022-5-5 22:17:01 来自手机 | 显示全部楼层
支持,楼下的跟上哈~
回复 支持 反对

使用道具 举报

您需要登录后才可以回帖 登录 | 立即注册

本版积分规则

精彩图文
Archiver|手机版|TAG|Sitemap|新帖|专题|联系我们:邮箱: 4kjia.com@gmail.com   

4k家园   ©2019