来自普莱恩维尔的女孩 (2022)/第二季全8集/4K高清版本下载

[复制链接]

130

主题

149

帖子

1459

积分

版主

Rank: 7Rank: 7Rank: 7

积分
1459
 楼主| 发表于 2022-5-4 15:51:15 | 显示全部楼层 |阅读模式
本帖最后由 美剧小虾 于 2022-5-4 15:56 编辑

26e66d0651da2a35d2b39bc58a75dd4d_副本.jpg

◎译  名 来自普莱恩维尔的女孩/来自苦痛之地的女孩/普莱恩维尔的女孩
◎片  名 The Girl From Plainville
◎年  代 2022
◎产  地 美国
◎类  别 剧情/犯罪
◎语  言 英语
◎上映日期 2022-03-29(美国)
◎IMDb评分  8.8/10 from 64 users
◎IMDb链接  https://www.imdb.com/title/tt10433266/

◎豆瓣评分 /10 from 0 users
◎豆瓣链接 https://douban.com/subject/35169966/
◎集  数 8
◎导  演 丽莎·查罗登科 Lisa Cholodenko
◎编  剧 丽兹·汉娜 Liz Hannah
◎主  演 艾丽·范宁 Elle Fanning
       科洛·塞维尼 Chloë Sevigny
       科尔顿·瑞安 Colton Ryan
       杰弗里·沃尔伯格 Jeffrey Wahlberg
       卡伊·伦诺克斯 Kai Lennox
       阿雅·卡什 Aya Cash
       凯利·奥科 Kelly AuCoin
       J.C.麦肯泽 J.C. MacKenzie
       梅丽莎·庞西奥 Melissa Ponzio
       Craig Anton Craig Anton
       迈克尔·莫斯利 Michael Mosley
       卡拉·布欧诺 Cara Buono
       克里斯汀·格里菲斯 Kristin Griffith
       斯科特·威廉姆·文特斯 Scott William Winters
       彼得·格雷蒂 Peter Gerety
       艾拉·鲁宾 Ella Rubin
       梅根·劳利斯 Megan Lawless
       柴纳萨·奥格布阿古 Chinasa Ogbuagu
       帕特里克·马克曼努斯 Patrick Macmanus


◎简  介


  艾丽·范宁将主演Hulu新剧《来自普莱恩维尔的女孩》(The Girl From Plainville,暂译)。该剧根据米歇尔·卡特的真实故事改编,2017年,卡特(范宁饰)因三年前发短信鼓励男友自杀而被判过失杀人罪,臭名昭著。丽兹·汉娜([华盛顿邮报])和帕特里克·马克曼努斯(《幻想快乐》)将共同撰写该剧剧本。

Video
ID : 1
Format : HEVC
Format/Info : High Efficiency Video Coding
Format profile : Main 10@L5.1@Main
Codec ID : V_MPEGH/ISO/HEVC
Duration : 48 min 33 s
Bit rate : 14.9 Mb/s
Width : 3 840 pixels
Height : 2 160 pixels
Display aspect ratio : 16:9
Frame rate mode : Constant
Frame rate : 23.976 (24000/1001) FPS
Color space : YUV
Chroma subsampling : 4:2:0
Bit depth : 10 bits
Bits/(Pixel*Frame) : 0.075
Stream size : 5.06 GiB (98%)
Default : No
Forced : No

Audio
ID : 2
Format : E-AC-3
Format/Info : Enhanced AC-3
Commercial name : Dolby Digital Plus
Codec ID : A_EAC3
Duration : 48 min 33 s
Bit rate mode : Constant
Bit rate : 256 kb/s
Channel(s) : 6 channels
Channel layout : L R C LFE Ls Rs
Sampling rate : 48.0 kHz
Frame rate : 31.250 FPS (1536 SPF)
Compression mode : Lossy
Stream size : 88.9 MiB (2%)
Language : English
Service kind : Complete Main
Default : No
Forced : No

Text #1
ID : 3
Format : UTF-8
Codec ID : S_TEXT/UTF8
Codec ID/Info : UTF-8 Plain Text
Duration : 45 min 39 s
Bit rate : 46 b/s
Count of elements : 528
Stream size : 15.6 KiB (0%)
Language : English
Default : No
Forced : No

Text #2
ID : 4
Format : UTF-8
Codec ID : S_TEXT/UTF8
Codec ID/Info : UTF-8 Plain Text
Duration : 46 min 11 s
Bit rate : 53 b/s
Count of elements : 626
Stream size : 18.1 KiB (0%)
Title : SDH
Language : English
Default : No
Forced : No

Text #3
ID : 5
Format : UTF-8
Codec ID : S_TEXT/UTF8
Codec ID/Info : UTF-8 Plain Text
Duration : 45 min 39 s
Bit rate : 48 b/s
Count of elements : 532
Stream size : 16.4 KiB (0%)
Language : Spanish
Default : No
Forced : No

Menu
00:08:52.000 : en:Chapter 1
00:20:47.000 : en:Chapter 2
00:30:56.000 : en:Chapter 3
00:41:58.000 : en:Chapter 4
00:46:30.000 : en:Chapter 5 - Credits

下载地址:

游客,如果您要查看本帖隐藏内容请回复

游客,如果您要查看本帖隐藏内容请回复




上一篇:找我经纪人/Ten.Percent(英版) (2022)/第二季全8集/4K高清版本下载
下一篇:政客(简繁中字)/The Politician(2019)/第一季全8集/4K高清版本下载
回复

使用道具 举报

2

主题

1411

帖子

4255

积分

4K家园VIP

Rank: 9Rank: 9Rank: 9

积分
4255
发表于 2022-5-4 15:51:33 | 显示全部楼层
高手啊
回复 支持 反对

使用道具 举报

0

主题

57

帖子

129

积分

新手上路

Rank: 1

积分
129
发表于 2022-5-4 19:14:19 | 显示全部楼层

这个是好东西了
回复 支持 反对

使用道具 举报

3

主题

1381

帖子

4167

积分

4K家园VIP

Rank: 9Rank: 9Rank: 9

积分
4167
发表于 2022-5-5 09:08:08 | 显示全部楼层
路过的帮顶
回复 支持 反对

使用道具 举报

0

主题

1375

帖子

4141

积分

4K家园VIP

Rank: 9Rank: 9Rank: 9

积分
4141
发表于 2022-5-6 23:25:23 | 显示全部楼层
我也顶起出售广告位
回复 支持 反对

使用道具 举报

3

主题

1412

帖子

4062

积分

4K家园VIP

Rank: 9Rank: 9Rank: 9

积分
4062
发表于 2022-5-7 21:52:15 | 显示全部楼层
佩服佩服!
回复 支持 反对

使用道具 举报

2

主题

1152

帖子

3476

积分

4K家园VIP

Rank: 9Rank: 9Rank: 9

积分
3476
发表于 2022-5-13 18:45:48 来自手机 | 显示全部楼层
好像还可以
回复 支持 反对

使用道具 举报

您需要登录后才可以回帖 登录 | 立即注册

本版积分规则

精彩图文
Archiver|手机版|TAG|Sitemap|新帖|专题|联系我们:邮箱: 4kjia.com@gmail.com   

4k家园   ©2019