英文系主任(内封简繁中字)(2021)/第一季全6集/4K高清版本下载

[复制链接]

130

主题

149

帖子

1459

积分

版主

Rank: 7Rank: 7Rank: 7

积分
1459
 楼主| 发表于 2022-5-4 16:32:07 | 显示全部楼层 |阅读模式
本帖最后由 美剧小虾 于 2022-5-4 16:33 编辑

p2673062837_副本.png

◎译  名 英文系主任/讲席教授/叫她系主任/系主任/英文老师
◎片  名 The Chair
◎年  代 2021
◎产  地 美国
◎类  别 剧情/喜剧
◎语  言 英语
◎上映日期 2021-08-20(美国)
◎IMDb评分  7.2/10 from 15943 users
◎IMDb链接  https://www.imdb.com/title/tt11834150/
◎豆瓣评分 7.6/10 from 14042users
◎豆瓣链接 https://douban.com/subject/34971175/
◎集  数 6
◎片  长 30分钟
◎编  剧 阿曼达·皮特 Amanda Peet
◎主  演 吴珊卓 Sandra Oh
       杰伊·杜普拉斯 Jay Duplass
       霍兰德·泰勒 Holland Taylor
       鲍勃·巴拉班 Bob Balaban
       娜娜·门萨 Nana Mensah
       大卫·摩斯 David Morse
       马西娅·德波尼斯 Marcia DeBonis
       约瑟夫·坎农 Joseph Cannon
       马洛里·露 Mallory Low
       鲍勃·斯蒂芬森 Bob Stephenson


◎简  介


  《叫她系主任》讲述金智允博士(吴珊卓 Sandra Oh 饰)在声名显赫的彭布罗克大学当上英文系系主任,她正努力适应这个新岗位。她是学校首位女系主任,更是大学职员之中少数的有色人种,必然要应付一般人不会面对的种种挑战。《叫她系主任》由吴珊卓、Jay Duplass、Holland Taylor、卜巴拉宾 (Bob Balaban)、Nana Mensah、大卫摩斯 (David Morse) 和 Everly Carganilla 主演,8 月 20 日在 Netflix 首播。

Video
ID : 1
Format : HEVC
Format/Info : High Efficiency Video Coding
Format profile : Main 10@L5@Main
HDR format : Dolby Vision, Version 1.0, dvhe.05.06, BL+RPU
Codec ID : dvhe
Codec ID/Info : High Efficiency Video Coding with Dolby Vision
Duration : 32 min 14 s
Bit rate : 15.0 Mb/s
Width : 3 840 pixels
Height : 2 160 pixels
Display aspect ratio : 16:9
Frame rate mode : Constant
Frame rate : 23.976 (24000/1001) FPS
Color space : YUV
Chroma subsampling : 4:2:0
Bit depth : 10 bits
Bits/(Pixel*Frame) : 0.075
Stream size : 3.38 GiB (95%)
Default : Yes
Alternate group : 1
Encoded date : UTC 2022-05-01 14:58:28
Tagged date : UTC 2022-05-01 14:58:42
Color range : Full
Codec configuration box : hvcC+dvcC

Audio
ID : 2
Format : E-AC-3 JOC
Format/Info : Enhanced AC-3 with Joint Object Coding
Commercial name : Dolby Digital Plus with Dolby Atmos
Codec ID : ec-3
Duration : 32 min 14 s
Bit rate mode : Constant
Bit rate : 768 kb/s
Maximum bit rate : 811 kb/s
Channel(s) : 6 channels
Channel layout : L R C LFE Ls Rs
Sampling rate : 48.0 kHz
Frame rate : 31.250 FPS (1536 SPF)
Compression mode : Lossy
Stream size : 177 MiB (5%)
Title : English
Language : English
Service kind : Complete Main
Default : Yes
Alternate group : 1
Tagged date : UTC 2022-05-01 14:58:42
Complexity index : Not present / 16
Number of dynamic objects : 15
Bed channel count : 1 channel
Bed channel configuration : LFE

Text #1
ID : 3
Format : Timed Text
Codec ID : tx3g
Duration : 11 min 49 s
Bit rate mode : Variable
Bit rate : 1 b/s
Stream size : 120 Bytes (0%)
Title : English
Language : English
Forced : No
Encoded date : UTC 2022-05-01 14:58:41
Tagged date : UTC 2022-05-01 14:58:42

Text #2
ID : 4
Format : Timed Text
Codec ID : tx3g
Duration : 30 min 30 s
Bit rate mode : Variable
Bit rate : 100 b/s
Stream size : 22.4 KiB (0%)
Title : English
Language : English
Forced : No
Encoded date : UTC 2022-05-01 14:58:41
Tagged date : UTC 2022-05-01 14:58:42

Text #3
ID : 5
Format : Timed Text
Codec ID : tx3g
Duration : 30 min 30 s
Bit rate mode : Variable
Bit rate : 136 b/s
Stream size : 30.5 KiB (0%)
Title : Arabic
Language : Arabic
Forced : No
Encoded date : UTC 2022-05-01 14:58:41
Tagged date : UTC 2022-05-01 14:58:42

Text #4
ID : 6
Format : Timed Text
Codec ID : tx3g
Duration : 30 min 30 s
Bit rate mode : Variable
Bit rate : 89 b/s
Stream size : 19.8 KiB (0%)
Title : 中文(简体)
Language : 中文
Forced : No
Encoded date : UTC 2022-05-01 14:58:41
Tagged date : UTC 2022-05-01 14:58:42

Text #5
ID : 7
Format : Timed Text
Codec ID : tx3g
Duration : 30 min 30 s
Bit rate mode : Variable
Bit rate : 86 b/s
Stream size : 19.1 KiB (0%)
Title : 中文(繁体)
Language : 中文
Forced : No
Encoded date : UTC 2022-05-01 14:58:41
Tagged date : UTC 2022-05-01 14:58:42


Text #6
ID : 8
Format : Timed Text
Codec ID : tx3g
Duration : 30 min 30 s
Bit rate mode : Variable
Bit rate : 75 b/s
Stream size : 16.7 KiB (0%)
Title : Croatian
Language : Croatian
Forced : No
Encoded date : UTC 2022-05-01 14:58:41
Tagged date : UTC 2022-05-01 14:58:42

Text #7
ID : 9
Format : Timed Text
Codec ID : tx3g
Duration : 30 min 30 s
Bit rate mode : Variable
Bit rate : 80 b/s
Stream size : 17.8 KiB (0%)
Title : Czech
Language : Czech
Forced : No
Encoded date : UTC 2022-05-01 14:58:41
Tagged date : UTC 2022-05-01 14:58:42

Text #8
ID : 10
Format : Timed Text
Codec ID : tx3g
Duration : 30 min 30 s
Bit rate mode : Variable
Bit rate : 77 b/s
Stream size : 17.2 KiB (0%)
Title : Danish
Language : Danish
Forced : No
Encoded date : UTC 2022-05-01 14:58:41
Tagged date : UTC 2022-05-01 14:58:42

Text #9
ID : 11
Format : Timed Text
Codec ID : tx3g
Duration : 30 min 30 s
Bit rate mode : Variable
Bit rate : 77 b/s
Stream size : 17.1 KiB (0%)
Title : Dutch
Language : Dutch
Forced : No
Encoded date : UTC 2022-05-01 14:58:41
Tagged date : UTC 2022-05-01 14:58:42

Text #10
ID : 12
Format : Timed Text
Codec ID : tx3g
Duration : 30 min 30 s
Bit rate mode : Variable
Bit rate : 76 b/s
Stream size : 17.1 KiB (0%)
Title : Finnish
Language : Finnish
Forced : No
Encoded date : UTC 2022-05-01 14:58:41
Tagged date : UTC 2022-05-01 14:58:42

Text #11
ID : 13
Format : Timed Text
Codec ID : tx3g
Duration : 30 min 30 s
Bit rate mode : Variable
Bit rate : 81 b/s
Stream size : 18.2 KiB (0%)
Title : French
Language : French
Forced : No
Encoded date : UTC 2022-05-01 14:58:41
Tagged date : UTC 2022-05-01 14:58:42

Text #12
ID : 14
Format : Timed Text
Codec ID : tx3g
Duration : 30 min 30 s
Bit rate mode : Variable
Bit rate : 81 b/s
Stream size : 18.2 KiB (0%)
Title : German
Language : German
Forced : No
Encoded date : UTC 2022-05-01 14:58:41
Tagged date : UTC 2022-05-01 14:58:42

Text #13
ID : 15
Format : Timed Text
Codec ID : tx3g
Duration : 30 min 31 s
Bit rate mode : Variable
Bit rate : 130 b/s
Stream size : 29.0 KiB (0%)
Title : Greek
Language : Greek
Forced : No
Encoded date : UTC 2022-05-01 14:58:41
Tagged date : UTC 2022-05-01 14:58:42

Text #14
ID : 16
Format : Timed Text
Codec ID : tx3g
Duration : 30 min 30 s
Bit rate mode : Variable
Bit rate : 129 b/s
Stream size : 28.8 KiB (0%)
Title : Hebrew
Language : Hebrew
Forced : No
Encoded date : UTC 2022-05-01 14:58:41
Tagged date : UTC 2022-05-01 14:58:42

Text #15
ID : 17
Format : Timed Text
Codec ID : tx3g
Duration : 30 min 30 s
Bit rate mode : Variable
Bit rate : 84 b/s
Stream size : 18.7 KiB (0%)
Title : Hungarian
Language : Hungarian
Forced : No
Encoded date : UTC 2022-05-01 14:58:41
Tagged date : UTC 2022-05-01 14:58:42

Text #16
ID : 18
Format : Timed Text
Codec ID : tx3g
Duration : 30 min 30 s
Bit rate mode : Variable
Bit rate : 78 b/s
Stream size : 17.4 KiB (0%)
Title : Indonesian
Language : Indonesian
Forced : No
Encoded date : UTC 2022-05-01 14:58:42
Tagged date : UTC 2022-05-01 14:58:42

Text #17
ID : 19
Format : Timed Text
Codec ID : tx3g
Duration : 30 min 30 s
Bit rate mode : Variable
Bit rate : 77 b/s
Stream size : 17.2 KiB (0%)
Title : Italian
Language : Italian
Forced : No
Encoded date : UTC 2022-05-01 14:58:42
Tagged date : UTC 2022-05-01 14:58:42

Text #18
ID : 20
Format : Timed Text
Codec ID : tx3g
Duration : 30 min 30 s
Bit rate mode : Variable
Bit rate : 87 b/s
Stream size : 19.5 KiB (0%)
Title : Japanese
Language : Japanese
Forced : No
Encoded date : UTC 2022-05-01 14:58:42
Tagged date : UTC 2022-05-01 14:58:42

Text #19
ID : 21
Format : Timed Text
Codec ID : tx3g
Duration : 30 min 30 s
Bit rate mode : Variable
Bit rate : 103 b/s
Stream size : 23.0 KiB (0%)
Title : Korean
Language : Korean
Forced : No
Encoded date : UTC 2022-05-01 14:58:42
Tagged date : UTC 2022-05-01 14:58:42

Text #20
ID : 22
Format : Timed Text
Codec ID : tx3g
Duration : 30 min 30 s
Bit rate mode : Variable
Bit rate : 80 b/s
Stream size : 18.0 KiB (0%)
Title : Malay
Language : Malay
Forced : No
Encoded date : UTC 2022-05-01 14:58:42
Tagged date : UTC 2022-05-01 14:58:42

Text #21
ID : 23
Format : Timed Text
Codec ID : tx3g
Duration : 30 min 30 s
Bit rate mode : Variable
Bit rate : 76 b/s
Stream size : 17.1 KiB (0%)
Title : Norwegian
Language : Norwegian Bokmal
Forced : No
Encoded date : UTC 2022-05-01 14:58:42
Tagged date : UTC 2022-05-01 14:58:42

Text #22
ID : 24
Format : Timed Text
Codec ID : tx3g
Duration : 30 min 30 s
Bit rate mode : Variable
Bit rate : 75 b/s
Stream size : 16.9 KiB (0%)
Title : Polish
Language : Polish
Forced : No
Encoded date : UTC 2022-05-01 14:58:42
Tagged date : UTC 2022-05-01 14:58:42

Text #23
ID : 25
Format : Timed Text
Codec ID : tx3g
Duration : 30 min 30 s
Bit rate mode : Variable
Bit rate : 83 b/s
Stream size : 18.5 KiB (0%)
Title : Portuguese
Language : Portuguese
Forced : No
Encoded date : UTC 2022-05-01 14:58:42
Tagged date : UTC 2022-05-01 14:58:42

Text #24
ID : 26
Format : Timed Text
Codec ID : tx3g
Duration : 30 min 30 s
Bit rate mode : Variable
Bit rate : 82 b/s
Stream size : 18.3 KiB (0%)
Title : Portuguese
Language : Portuguese
Forced : No
Encoded date : UTC 2022-05-01 14:58:42
Tagged date : UTC 2022-05-01 14:58:42

Text #25
ID : 27
Format : Timed Text
Codec ID : tx3g
Duration : 30 min 30 s
Bit rate mode : Variable
Bit rate : 92 b/s
Stream size : 20.6 KiB (0%)
Title : Romanian
Language : Romanian
Forced : No
Encoded date : UTC 2022-05-01 14:58:42
Tagged date : UTC 2022-05-01 14:58:42

Text #26
ID : 28
Format : Timed Text
Codec ID : tx3g
Duration : 30 min 30 s
Bit rate mode : Variable
Bit rate : 129 b/s
Stream size : 28.9 KiB (0%)
Title : Russian
Language : Russian
Forced : No
Encoded date : UTC 2022-05-01 14:58:42
Tagged date : UTC 2022-05-01 14:58:42

Text #27
ID : 29
Format : Timed Text
Codec ID : tx3g
Duration : 30 min 30 s
Bit rate mode : Variable
Bit rate : 77 b/s
Stream size : 17.1 KiB (0%)
Title : Spanish-EU
Language : Spanish
Forced : No
Encoded date : UTC 2022-05-01 14:58:42
Tagged date : UTC 2022-05-01 14:58:42

Text #28
ID : 30
Format : Timed Text
Codec ID : tx3g
Duration : 30 min 32 s
Bit rate mode : Variable
Bit rate : 81 b/s
Stream size : 18.1 KiB (0%)
Title : Spanish-EU
Language : Spanish
Forced : No
Encoded date : UTC 2022-05-01 14:58:42
Tagged date : UTC 2022-05-01 14:58:42

Text #29
ID : 31
Format : Timed Text
Codec ID : tx3g
Duration : 30 min 30 s
Bit rate mode : Variable
Bit rate : 80 b/s
Stream size : 17.9 KiB (0%)
Title : Swedish
Language : Swedish
Forced : No
Encoded date : UTC 2022-05-01 14:58:42
Tagged date : UTC 2022-05-01 14:58:42

Text #30
ID : 32
Format : Timed Text
Codec ID : tx3g
Duration : 30 min 30 s
Bit rate mode : Variable
Bit rate : 212 b/s
Stream size : 47.5 KiB (0%)
Title : Thai
Language : Thai
Forced : No
Encoded date : UTC 2022-05-01 14:58:42
Tagged date : UTC 2022-05-01 14:58:42

Text #31
ID : 33
Format : Timed Text
Codec ID : tx3g
Duration : 30 min 30 s
Bit rate mode : Variable
Bit rate : 85 b/s
Stream size : 19.1 KiB (0%)
Title : Turkish
Language : Turkish
Forced : No
Encoded date : UTC 2022-05-01 14:58:42
Tagged date : UTC 2022-05-01 14:58:42

Text #32
ID : 34
Format : Timed Text
Codec ID : tx3g
Duration : 30 min 30 s
Bit rate mode : Variable
Bit rate : 129 b/s
Stream size : 28.8 KiB (0%)
Title : Ukrainian
Language : Ukrainian
Forced : No
Encoded date : UTC 2022-05-01 14:58:42
Tagged date : UTC 2022-05-01 14:58:42

Text #33
ID : 35
Format : Timed Text
Codec ID : tx3g
Duration : 30 min 30 s
Bit rate mode : Variable
Bit rate : 115 b/s
Stream size : 25.6 KiB (0%)
Title : Vietnamese
Language : Vietnamese
Forced : No
Encoded date : UTC 2022-05-01 14:58:42
Tagged date : UTC 2022-05-01 14:58:42

下载地址:

游客,如果您要查看本帖隐藏内容请回复

游客,如果您要查看本帖隐藏内容请回复

游客,如果您要查看本帖隐藏内容请回复

游客,如果您要查看本帖隐藏内容请回复





上一篇:政客(简繁中字)/The Politician(2020)/第二季全7集/4K高清版本下载
下一篇:心向快乐(内封简繁中字)(2020)/第一季全6集/4K高清版本下载
回复

使用道具 举报

40

主题

1516

帖子

4310

积分

4K家园VIP

Rank: 9Rank: 9Rank: 9

积分
4310
发表于 2022-5-4 16:33:51 | 显示全部楼层
广告位,,坐下看看
回复 支持 反对

使用道具 举报

0

主题

3

帖子

12

积分

新手上路

Rank: 1

积分
12
发表于 2022-5-4 19:43:29 | 显示全部楼层
感谢分享
回复

使用道具 举报

0

主题

8230

帖子

1万

积分

4K家园VIP

Rank: 9Rank: 9Rank: 9

积分
18830
发表于 2022-5-6 09:19:01 | 显示全部楼层
太好啦&萬分感謝版主的無私發佈分享%
回复 支持 反对

使用道具 举报

38

主题

1481

帖子

4261

积分

4K家园VIP

Rank: 9Rank: 9Rank: 9

积分
4261
发表于 2022-5-8 02:08:03 来自手机 | 显示全部楼层
回复 支持 反对

使用道具 举报

3

主题

1393

帖子

4021

积分

4K家园VIP

Rank: 9Rank: 9Rank: 9

积分
4021
发表于 2022-5-8 03:56:23 | 显示全部楼层
呵呵。。。
回复 支持 反对

使用道具 举报

0

主题

1328

帖子

3996

积分

4K家园VIP

Rank: 9Rank: 9Rank: 9

积分
3996
发表于 2022-5-9 00:59:03 | 显示全部楼层
前排支持下了哦~
回复 支持 反对

使用道具 举报

1

主题

1627

帖子

4455

积分

4K家园VIP

Rank: 9Rank: 9Rank: 9

积分
4455
发表于 6 天前 来自手机 | 显示全部楼层
哈哈,我只看看不说话
回复 支持 反对

使用道具 举报

您需要登录后才可以回帖 登录 | 立即注册

本版积分规则

精彩图文
Archiver|手机版|TAG|Sitemap|新帖|专题|联系我们:邮箱: 4kjia.com@gmail.com   

4k家园   ©2019