心向快乐(内封简繁中字)(2020)/第一季全6集/4K高清版本下载

[复制链接]

203

主题

226

帖子

2233

积分

版主

Rank: 7Rank: 7Rank: 7

积分
2233
 楼主| 发表于 2022-5-4 16:57:14 | 显示全部楼层 |阅读模式
p2592255810_副本.jpg

◎译  名 心向快乐 / 迷醉伦敦 / Feel Good 小姐(港) / 我要开心(台) / Mae and George
◎片  名 Feel.Good S01
◎年  代 2020
◎产  地 英国
◎类  别 喜剧 / 同性
◎语  言 英语
◎上映日期 2020-03-19(美国)
◎IMDb评分  7.5/10 from 10309 users
◎IMDb链接  https://www.imdb.com/title/tt10098620/
◎豆瓣评分 8.2/10 from 8830 users
◎豆瓣链接 https://movie.douban.com/subject/34969355/
◎片  长 25分钟
◎导  演 阿丽·潘基乌 Ally Pankiw
◎编  剧 乔·汉普森 Mae Martin / 梅·马丁 Joe Hampson
◎主  演 汤姆·安德鲁斯 Tom Andrus
                   菲尔·伯格 Phil Burgers
                   梅·马丁Mae Martin
                   夏洛特·里奇 Charlotte rich
                   拉蒙·蒂卡拉姆 Ramon tikalam
                   里图·阿亚 Ritu Aya
                   托比·班特法 Tobi Bamtefa
                   奥菲利亚·拉维邦德 Ophelia ravibond
                   罗莎琳德·马奇 Rosalind March
                   辛杜·维 Sindhu Vee
                   汤姆·杜兰特·普里特查德 Tom Durant Pritchard
                   丽莎·库卓 Lisa kudro
                   斯特恩·拉斯科普洛斯 Steen Raskopoulos
                   阿尔·罗伯茨 Al Roberts
                   皮帕·海伍德 Pippa Haywood
                   切特纳·潘迪亚 Chetna Pandya
                   艾德里安·鲁基斯 Adrian Lukis
                   格洛里亚·奥比安约 Gloria obianyo
                   苏菲·汤普森 Sophie Thompson
                   巴里·沃德 Barry ward



◎简  介


       单口喜剧演员梅·马丁不仅要应对戒毒问题,还要经营与新女友的热恋关系,而女友以前是个异性恋。
Video
ID : 1
Format : HEVC
Format/Info : High Efficiency Video Coding
Format profile : Main 10@L5@Main
HDR format : Dolby Vision, Version 1.0, dvhe.05.07, BL+RPU
Codec ID : dvhe
Codec ID/Info : High Efficiency Video Coding with Dolby Vision
Duration : 25 min 34 s
Bit rate : 15.6 Mb/s
Width : 3 840 pixels
Height : 2 160 pixels
Display aspect ratio : 16:9
Frame rate mode : Constant
Frame rate : 25.000 FPS
Color space : YUV
Chroma subsampling : 4:2:0
Bit depth : 10 bits
Bits/(Pixel*Frame) : 0.075
Stream size : 2.79 GiB (96%)
Default : Yes
Alternate group : 1
Encoded date : UTC 2022-05-01 14:51:43
Tagged date : UTC 2022-05-01 14:51:55
Color range : Full
Codec configuration box : hvcC+dvcC

Audio
ID : 2
Format : E-AC-3
Format/Info : Enhanced AC-3
Commercial name : Dolby Digital Plus
Codec ID : ec-3
Duration : 25 min 34 s
Bit rate mode : Constant
Bit rate : 640 kb/s
Maximum bit rate : 676 kb/s
Channel(s) : 6 channels
Channel layout : L R C LFE Ls Rs
Sampling rate : 48.0 kHz
Frame rate : 31.250 FPS (1536 SPF)
Compression mode : Lossy
Stream size : 117 MiB (4%)
Title : English
Language : English
Service kind : Complete Main
Default : Yes
Alternate group : 1
Tagged date : UTC 2022-05-01 14:51:55

Text #1
ID : 3
Format : Timed Text
Codec ID : tx3g
Duration : 24 min 28 s
Bit rate mode : Variable
Bit rate : 108 b/s
Stream size : 19.3 KiB (0%)
Title : English
Language : English
Forced : No
Encoded date : UTC 2022-05-01 14:51:54
Tagged date : UTC 2022-05-01 14:51:55

Text #2
ID : 4
Format : Timed Text
Codec ID : tx3g
Duration : 24 min 50 s
Bit rate mode : Variable
Bit rate : 154 b/s
Stream size : 28.0 KiB (0%)
Title : Arabic
Language : Arabic
Forced : No
Encoded date : UTC 2022-05-01 14:51:54
Tagged date : UTC 2022-05-01 14:51:55

Text #3
ID : 5
Format : Timed Text
Codec ID : tx3g
Duration : 24 min 50 s
Bit rate mode : Variable
Bit rate : 102 b/s
Stream size : 18.6 KiB (0%)
Title : 中文(简体)
Language : 中文
Forced : No
Encoded date : UTC 2022-05-01 14:51:54
Tagged date : UTC 2022-05-01 14:51:55

Text #4
ID : 6
Format : Timed Text
Codec ID : tx3g
Duration : 24 min 20 s
Bit rate mode : Variable
Bit rate : 98 b/s
Stream size : 17.5 KiB (0%)
Title : 中文(繁体)
Language : 中文
Forced : No
Encoded date : UTC 2022-05-01 14:51:54
Tagged date : UTC 2022-05-01 14:51:55


Text #5
ID : 7
Format : Timed Text
Codec ID : tx3g
Duration : 24 min 50 s
Bit rate mode : Variable
Bit rate : 72 b/s
Stream size : 13.1 KiB (0%)
Title : Croatian
Language : Croatian
Forced : No
Encoded date : UTC 2022-05-01 14:51:54
Tagged date : UTC 2022-05-01 14:51:55

Text #6
ID : 8
Format : Timed Text
Codec ID : tx3g
Duration : 24 min 20 s
Bit rate mode : Variable
Bit rate : 88 b/s
Stream size : 15.6 KiB (0%)
Title : Czech
Language : Czech
Forced : No
Encoded date : UTC 2022-05-01 14:51:54
Tagged date : UTC 2022-05-01 14:51:55

Text #7
ID : 9
Format : Timed Text
Codec ID : tx3g
Duration : 24 min 50 s
Bit rate mode : Variable
Bit rate : 82 b/s
Stream size : 15.0 KiB (0%)
Title : Danish
Language : Danish
Forced : No
Encoded date : UTC 2022-05-01 14:51:54
Tagged date : UTC 2022-05-01 14:51:55

Text #8
ID : 10
Format : Timed Text
Codec ID : tx3g
Duration : 24 min 30 s
Bit rate mode : Variable
Bit rate : 72 b/s
Stream size : 12.9 KiB (0%)
Title : Dutch
Language : Dutch
Forced : No
Encoded date : UTC 2022-05-01 14:51:54
Tagged date : UTC 2022-05-01 14:51:55

Text #9
ID : 11
Format : Timed Text
Codec ID : tx3g
Duration : 24 min 20 s
Bit rate mode : Variable
Bit rate : 79 b/s
Stream size : 14.0 KiB (0%)
Title : Finnish
Language : Finnish
Forced : No
Encoded date : UTC 2022-05-01 14:51:54
Tagged date : UTC 2022-05-01 14:51:55

Text #10
ID : 12
Format : Timed Text
Codec ID : tx3g
Duration : 24 min 50 s
Bit rate mode : Variable
Bit rate : 82 b/s
Stream size : 15.0 KiB (0%)
Title : French
Language : French
Forced : No
Encoded date : UTC 2022-05-01 14:51:54
Tagged date : UTC 2022-05-01 14:51:55

Text #11
ID : 13
Format : Timed Text
Codec ID : tx3g
Duration : 24 min 20 s
Bit rate mode : Variable
Bit rate : 81 b/s
Stream size : 14.4 KiB (0%)
Title : German
Language : German
Forced : No
Encoded date : UTC 2022-05-01 14:51:54
Tagged date : UTC 2022-05-01 14:51:55

Text #12
ID : 14
Format : Timed Text
Codec ID : tx3g
Duration : 24 min 20 s
Bit rate mode : Variable
Bit rate : 137 b/s
Stream size : 24.3 KiB (0%)
Title : Greek
Language : Greek
Forced : No
Encoded date : UTC 2022-05-01 14:51:54
Tagged date : UTC 2022-05-01 14:51:55

Text #13
ID : 15
Format : Timed Text
Codec ID : tx3g
Duration : 24 min 31 s
Bit rate mode : Variable
Bit rate : 139 b/s
Stream size : 24.9 KiB (0%)
Title : Hebrew
Language : Hebrew
Forced : No
Encoded date : UTC 2022-05-01 14:51:54
Tagged date : UTC 2022-05-01 14:51:55

Text #14
ID : 16
Format : Timed Text
Codec ID : tx3g
Duration : 24 min 20 s
Bit rate mode : Variable
Bit rate : 85 b/s
Stream size : 15.2 KiB (0%)
Title : Hungarian
Language : Hungarian
Forced : No
Encoded date : UTC 2022-05-01 14:51:54
Tagged date : UTC 2022-05-01 14:51:55

Text #15
ID : 17
Format : Timed Text
Codec ID : tx3g
Duration : 24 min 20 s
Bit rate mode : Variable
Bit rate : 91 b/s
Stream size : 16.3 KiB (0%)
Title : Indonesian
Language : Indonesian
Forced : No
Encoded date : UTC 2022-05-01 14:51:54
Tagged date : UTC 2022-05-01 14:51:55

Text #16
ID : 18
Format : Timed Text
Codec ID : tx3g
Duration : 24 min 50 s
Bit rate mode : Variable
Bit rate : 79 b/s
Stream size : 14.4 KiB (0%)
Title : Italian
Language : Italian
Forced : No
Encoded date : UTC 2022-05-01 14:51:55
Tagged date : UTC 2022-05-01 14:51:55

Text #17
ID : 19
Format : Timed Text
Codec ID : tx3g
Duration : 24 min 20 s
Bit rate mode : Variable
Bit rate : 85 b/s
Stream size : 15.2 KiB (0%)
Title : Japanese
Language : Japanese
Forced : No
Encoded date : UTC 2022-05-01 14:51:55
Tagged date : UTC 2022-05-01 14:51:55

Text #18
ID : 20
Format : Timed Text
Codec ID : tx3g
Duration : 24 min 20 s
Bit rate mode : Variable
Bit rate : 114 b/s
Stream size : 20.4 KiB (0%)
Title : Korean
Language : Korean
Forced : No
Encoded date : UTC 2022-05-01 14:51:55
Tagged date : UTC 2022-05-01 14:51:55

Text #19
ID : 21
Format : Timed Text
Codec ID : tx3g
Duration : 24 min 50 s
Bit rate mode : Variable
Bit rate : 78 b/s
Stream size : 14.2 KiB (0%)
Title : Malay
Language : Malay
Forced : No
Encoded date : UTC 2022-05-01 14:51:55
Tagged date : UTC 2022-05-01 14:51:55

Text #20
ID : 22
Format : Timed Text
Codec ID : tx3g
Duration : 24 min 50 s
Bit rate mode : Variable
Bit rate : 76 b/s
Stream size : 13.8 KiB (0%)
Title : Norwegian
Language : Norwegian Bokmal
Forced : No
Encoded date : UTC 2022-05-01 14:51:55
Tagged date : UTC 2022-05-01 14:51:55

Text #21
ID : 23
Format : Timed Text
Codec ID : tx3g
Duration : 24 min 20 s
Bit rate mode : Variable
Bit rate : 80 b/s
Stream size : 14.3 KiB (0%)
Title : Polish
Language : Polish
Forced : No
Encoded date : UTC 2022-05-01 14:51:55
Tagged date : UTC 2022-05-01 14:51:55

Text #22
ID : 24
Format : Timed Text
Codec ID : tx3g
Duration : 24 min 50 s
Bit rate mode : Variable
Bit rate : 88 b/s
Stream size : 16.0 KiB (0%)
Title : Portuguese
Language : Portuguese
Forced : No
Encoded date : UTC 2022-05-01 14:51:55
Tagged date : UTC 2022-05-01 14:51:55

Text #23
ID : 25
Format : Timed Text
Codec ID : tx3g
Duration : 24 min 31 s
Bit rate mode : Variable
Bit rate : 84 b/s
Stream size : 15.0 KiB (0%)
Title : Portuguese
Language : Portuguese
Forced : No
Encoded date : UTC 2022-05-01 14:51:55
Tagged date : UTC 2022-05-01 14:51:55

Text #24
ID : 26
Format : Timed Text
Codec ID : tx3g
Duration : 24 min 50 s
Bit rate mode : Variable
Bit rate : 96 b/s
Stream size : 17.4 KiB (0%)
Title : Romanian
Language : Romanian
Forced : No
Encoded date : UTC 2022-05-01 14:51:55
Tagged date : UTC 2022-05-01 14:51:55

Text #25
ID : 27
Format : Timed Text
Codec ID : tx3g
Duration : 24 min 52 s
Bit rate mode : Variable
Bit rate : 139 b/s
Stream size : 25.2 KiB (0%)
Title : Russian
Language : Russian
Forced : No
Encoded date : UTC 2022-05-01 14:51:55
Tagged date : UTC 2022-05-01 14:51:55

Text #26
ID : 28
Format : Timed Text
Codec ID : tx3g
Duration : 24 min 50 s
Bit rate mode : Variable
Bit rate : 84 b/s
Stream size : 15.3 KiB (0%)
Title : Spanish-EU
Language : Spanish
Forced : No
Encoded date : UTC 2022-05-01 14:51:55
Tagged date : UTC 2022-05-01 14:51:55

Text #27
ID : 29
Format : Timed Text
Codec ID : tx3g
Duration : 24 min 20 s
Bit rate mode : Variable
Bit rate : 80 b/s
Stream size : 14.3 KiB (0%)
Title : Spanish-EU
Language : Spanish
Forced : No
Encoded date : UTC 2022-05-01 14:51:55
Tagged date : UTC 2022-05-01 14:51:55

Text #28
ID : 30
Format : Timed Text
Codec ID : tx3g
Duration : 24 min 20 s
Bit rate mode : Variable
Bit rate : 80 b/s
Stream size : 14.3 KiB (0%)
Title : Swedish
Language : Swedish
Forced : No
Encoded date : UTC 2022-05-01 14:51:55
Tagged date : UTC 2022-05-01 14:51:55

Text #29
ID : 31
Format : Timed Text
Codec ID : tx3g
Duration : 24 min 50 s
Bit rate mode : Variable
Bit rate : 223 b/s
Stream size : 40.6 KiB (0%)
Title : Thai
Language : Thai
Forced : No
Encoded date : UTC 2022-05-01 14:51:55
Tagged date : UTC 2022-05-01 14:51:55

Text #30
ID : 32
Format : Timed Text
Codec ID : tx3g
Duration : 24 min 20 s
Bit rate mode : Variable
Bit rate : 87 b/s
Stream size : 15.5 KiB (0%)
Title : Turkish
Language : Turkish
Forced : No
Encoded date : UTC 2022-05-01 14:51:55
Tagged date : UTC 2022-05-01 14:51:55

Text #31
ID : 33
Format : Timed Text
Codec ID : tx3g
Duration : 24 min 53 s
Bit rate mode : Variable
Bit rate : 126 b/s
Stream size : 22.9 KiB (0%)
Title : Ukrainian
Language : Ukrainian
Forced : No
Encoded date : UTC 2022-05-01 14:51:55
Tagged date : UTC 2022-05-01 14:51:55

Text #32
ID : 34
Format : Timed Text
Codec ID : tx3g
Duration : 24 min 50 s
Bit rate mode : Variable
Bit rate : 119 b/s
Stream size : 21.6 KiB (0%)
Title : Vietnamese
Language : Vietnamese
Forced : No
Encoded date : UTC 2022-05-01 14:51:55


下载地址:

游客,如果您要查看本帖隐藏内容请回复


游客,如果您要查看本帖隐藏内容请回复

游客,如果您要查看本帖隐藏内容请回复

游客,如果您要查看本帖隐藏内容请回复






上一篇:英文系主任(内封简繁中字)(2021)/第一季全6集/4K高清版本下载
下一篇:心向快乐(内封简繁中字)(2021)/第二季全6集/4K高清版本下载
回复

使用道具 举报

0

主题

1667

帖子

4631

积分

4K家园VIP

Rank: 9Rank: 9Rank: 9

积分
4631
发表于 2022-5-4 16:57:31 | 显示全部楼层
向楼主学习
回复 支持 反对

使用道具 举报

0

主题

8653

帖子

2万

积分

4K家园VIP

Rank: 9Rank: 9Rank: 9

积分
20150
发表于 2022-5-5 08:47:46 | 显示全部楼层
太好啦&萬分感謝版主的無私發佈分享%
回复 支持 反对

使用道具 举报

38

主题

1554

帖子

4442

积分

4K家园VIP

Rank: 9Rank: 9Rank: 9

积分
4442
发表于 2022-5-8 17:41:18 | 显示全部楼层
感谢楼主发帖,前排顶起
回复 支持 反对

使用道具 举报

68

主题

1553

帖子

4527

积分

4K家园VIP

Rank: 9Rank: 9Rank: 9

积分
4527
发表于 2022-5-8 20:43:56 | 显示全部楼层
鄙视楼下的顶帖没我快,哈哈
回复 支持 反对

使用道具 举报

2

主题

1409

帖子

4077

积分

4K家园VIP

Rank: 9Rank: 9Rank: 9

积分
4077
发表于 2022-5-9 02:59:59 | 显示全部楼层
差评
回复 支持 反对

使用道具 举报

20

主题

1288

帖子

3866

积分

4K家园VIP

Rank: 9Rank: 9Rank: 9

积分
3866
发表于 2022-5-9 18:13:15 | 显示全部楼层
传说中的沙发???哇卡卡
回复 支持 反对

使用道具 举报

您需要登录后才可以回帖 登录 | 立即注册

本版积分规则

精彩图文
Archiver|手机版|TAG|Sitemap|新帖|专题|联系我们:邮箱: 4kjia.com@gmail.com   

4k家园   ©2019