[4K电影] 人为释放 / Unearth (2020) 4k高清版本下载

[复制链接]

2325

主题

2474

帖子

1万

积分

超级版主

Rank: 8Rank: 8

积分
17918
 楼主| 发表于 2022-5-6 12:16:15 | 显示全部楼层 |阅读模式

QQ图片20220506121436_副本.png

◎译  名 人为释放 / 挖掘
◎片  名 Unearth
◎年  代 2020
◎产  地 美国
◎类  别 剧情 / 恐怖
◎语  言 英语
◎上映日期 2020-08-25(幻想曲电影节)
◎IMDb评分  4.8/10 from 1153 users
◎IMDb链接  https://www.imdb.com/title/tt5532280/
◎豆瓣评分 3.8/10 from users
◎豆瓣链接 https://movie.douban.com/subject/35191512/
◎片  长 94分钟
◎导  演 约翰·C·里昂 John C. Lyons /  多罗塔·斯维斯·莱昂斯 Dorota Swies-Lyons
◎编  剧 约翰·C·里昂 John C. Lyons  
◎演  员 阿德里安娜·巴比欧 Adrienne Barbeau
       马克·布鲁卡斯 Marc Blucas  
       爱丽珊·麦卡蒂 Allison McAtee  

◎简  介

  一个水力压裂恐怖故事《挖掘》讲述了两个相邻的农场家庭的故事,当其中一个选择将土地出租给一家石油和天然气公司时,他们的关系紧张。在日益紧张的局势中,土地被钻探,地球表面深处长期休眠和可怕的东西被释放。《发掘》讲述的是sho。。。

Video
ID : 1
Format : HEVC
Format/Info : High Efficiency Video Coding
Format profile : Main@L5@Main
Codec ID : V_MPEGH/ISO/HEVC
Duration : 1 h 33 min
Bit rate : 14.8 Mb/s
Width : 3 840 pixels
Height : 2 160 pixels
Display aspect ratio : 16:9
Frame rate mode : Constant
Frame rate : 23.976 (24000/1001) FPS
Color space : YUV
Chroma subsampling : 4:2:0
Bit depth : 8 bits
Bits/(Pixel*Frame) : 0.074
Stream size : 9.70 GiB (79%)
Writing library : x265 3.5hy:[Linux][GCC 7.5.0][64 bit] 8bit
Encoding settings : cpuid=1111039 / frame-threads=2 / wpp / no-pmode / no-pme / no-psnr / no-ssim / log-level=2 / input-csp=1 / input-res=3840x2160 / interlace=0 / total-frames=0 / level-idc=0 / high-tier=1 / uhd-bd=0 / ref=4 / no-allow-non-conformance / repeat-headers / annexb / aud / hrd / info / hash=0 / no-temporal-layers / no-open-gop / min-keyint=48 / keyint=48 / gop-lookahead=0 / bframes=4 / b-adapt=2 / b-pyramid / bframe-bias=0 / rc-lookahead=48 / lookahead-slices=4 / scenecut=0 / hist-scenecut=0 / radl=0 / no-splice / no-intra-refresh / ctu=64 / min-cu-size=8 / rect / no-amp / max-tu-size=32 / tu-inter-depth=1 / tu-intra-depth=1 / limit-tu=0 / rdoq-level=2 / dynamic-rd=0.00 / no-ssim-rd / signhide / no-tskip / nr-intra=100 / nr-inter=200 / no-constrained-intra / strong-intra-smoothing / max-merge=3 / limit-refs=3 / limit-modes / me=3 / subme=3 / merange=57 / temporal-mvp / no-frame-dup / no-hme / weightp / no-weightb / no-analyze-src-pics / deblock=0:0 / no-sao / no-sao-non-deblock / rd=4 / selective-sao=0 / no-early-skip / no-rskip / no-fast-intra / no-tskip-fast / no-cu-lossless / no-b-intra / no-splitrd-skip / rdpenalty=0 / psy-rd=0.00 / psy-rdoq=10.00 / no-rd-refine / no-lossless / cbqpoffs=0 / crqpoffs=0 / rc=abr / bitrate=15000 / qcomp=0.60 / qpstep=1 / stats-write=0 / stats-read=2 / cplxblur=20.0 / qblur=0.5 / vbv-maxrate=18000 / vbv-bufsize=12000 / vbv-init=0.6 / min-vbv-fullness=50.0 / max-vbv-fullness=80.0 / vbv-end=0.6 / vbv-end-fr-adj=0.0 / ipratio=1.10 / pbratio=1.00 / aq-mode=0 / aq-strength=0.00 / no-cutree / zone-count=0 / no-strict-cbr / qg-size=32 / rc-grain / qpmax=69 / qpmin=0 / const-vbv / sar=0 / overscan=0 / videoformat=5 / range=0 / colorprim=1 / transfer=1 / colormatrix=1 / chromaloc=0 / display-window=0 / cll=0,0 / min-luma=0 / max-luma=255 / log2-max-poc-lsb=8 / vui-timing-info / vui-hrd-info / no-concatenation / slices=1 / no-opt-qp-pps / no-opt-ref-list-length-pps / no-multi-pass-opt-rps / scenecut-bias=0.05 / hist-threshold=0.03 / no-opt-cu-delta-qp / no-aq-motion / no-hdr10 / no-hdr10-opt / no-dhdr10-opt / no-idr-recovery-sei / analysis-reuse-level=0 / analysis-save-reuse-level=0 / analysis-load-reuse-level=0 / scale-factor=0 / refine-intra=0 / refine-inter=0 / refine-mv=1 / refine-ctu-distortion=0 / no-limit-sao / ctu-info=0 / no-lowpass-dct / refine-analysis-type=0 / copy-pic=1 / max-ausize-factor=1.0 / no-dynamic-refine / no-single-sei / no-hevc-aq / no-svt / no-field / qp-adaptation-range=1.00 / scenecut-aware-qp=0conformance-window-offsets / right=0 / bottom=0 / decoder-max-rate=0 / no-vbv-live-multi-pass
Language : English
Default : Yes
Forced : No
Color range : Limited
Color primaries : BT.709
Transfer characteristics : BT.709
Matrix coefficients : BT.709

Audio #1
ID : 2
Format : DTS XLL
Format/Info : Digital Theater Systems
Commercial name : DTS-HD Master Audio
Codec ID : A_DTS
Duration : 1 h 34 min
Bit rate mode : Variable
Bit rate : 3 580 kb/s
Channel(s) : 6 channels
Channel layout : C L R Ls Rs LFE
Sampling rate : 48.0 kHz
Frame rate : 93.750 FPS (512 SPF)
Bit depth : 24 bits
Compression mode : Lossless
Delay relative to video : 4 ms
Stream size : 2.36 GiB (19%)
Title : DTS-HD MA 5.1
Language : English
Default : Yes
Forced : No

Audio #2
ID : 3
Format : AC-3
Format/Info : Audio Coding 3
Commercial name : Dolby Digital
Codec ID : A_AC3
Duration : 1 h 33 min
Bit rate mode : Constant
Bit rate : 384 kb/s
Channel(s) : 6 channels
Channel layout : L R C LFE Ls Rs
Sampling rate : 48.0 kHz
Frame rate : 31.250 FPS (1536 SPF)
Compression mode : Lossy
Stream size : 258 MiB (2%)
Title : English
Language : English
Service kind : Complete Main
Default : Yes
Forced : No

Text
ID : 4
Format : UTF-8
Codec ID : S_TEXT/UTF8
Codec ID/Info : UTF-8 Plain Text
Duration : 1 h 27 min
Bit rate : 30 b/s
Count of elements : 784
Stream size : 19.6 KiB (0%)
Title : English (SDH)
Language : English
Default : Yes
Forced : No


资源速度为零或资源敏感被和谐时,推荐使用qBittorrent等下载软件,有条件的推荐115更好的下载软件!

下载地址:


游客,如果您要查看本帖隐藏内容请回复



.

上一篇:杀戮天眼 / Volition (2019) 4k高清版本下载
下一篇:玉米地的怪物 / Escape The Field (2022) 4k高清版本下载
回复

使用道具 举报

53

主题

1251

帖子

3821

积分

4K家园VIP

Rank: 9Rank: 9Rank: 9

积分
3821
发表于 2022-5-6 12:16:19 | 显示全部楼层
没明白
回复 支持 反对

使用道具 举报

40

主题

1509

帖子

4343

积分

4K家园VIP

Rank: 9Rank: 9Rank: 9

积分
4343
发表于 2022-5-6 12:16:19 | 显示全部楼层
占位编辑
回复 支持 反对

使用道具 举报

0

主题

8653

帖子

2万

积分

4K家园VIP

Rank: 9Rank: 9Rank: 9

积分
20150
发表于 2022-5-6 12:20:35 | 显示全部楼层
太好啦&萬分感謝版主的無私發佈分享%
回复 支持 反对

使用道具 举报

4

主题

1640

帖子

4520

积分

4K家园VIP

Rank: 9Rank: 9Rank: 9

积分
4520
发表于 2022-5-12 22:12:53 | 显示全部楼层
我也是坐沙发的
回复 支持 反对

使用道具 举报

53

主题

1518

帖子

4424

积分

4K家园VIP

Rank: 9Rank: 9Rank: 9

积分
4424
发表于 2022-5-13 13:57:08 | 显示全部楼层
是爷们的娘们的都帮顶!大力支持
回复 支持 反对

使用道具 举报

73

主题

1569

帖子

4537

积分

4K家园VIP

Rank: 9Rank: 9Rank: 9

积分
4537
发表于 2022-5-16 16:48:59 | 显示全部楼层
鄙视楼下的顶帖没我快,哈哈
回复 支持 反对

使用道具 举报

您需要登录后才可以回帖 登录 | 立即注册

本版积分规则

精彩图文
Archiver|手机版|TAG|Sitemap|新帖|专题|联系我们:邮箱: 4kjia.com@gmail.com   

4k家园   ©2019