[4K电影] 变线人生 / Changing Lanes (2002) 4k高清版本下载

[复制链接]

1733

主题

1866

帖子

1万

积分

超级版主

Rank: 8Rank: 8

积分
14095
 楼主| 发表于 2022-5-9 20:37:23 | 显示全部楼层 |阅读模式

QQ图片20220509203621_副本.png

◎译  名 变线人生/生死交关/命运交错/连锁导火线/逆行风暴
◎片  名 Changing Lanes
◎年  代 2002
◎产  地 美国
◎类  别 剧情/惊悚
◎语  言 英语
◎上映日期 2002-04-12
◎IMDb评分  6.5/10 from 71466 users
◎IMDb链接  https://www.imdb.com/title/tt0264472/
◎豆瓣评分 6.8/10 from 3857 users
◎豆瓣链接 https://douban.com/subject/1297881/
◎片  长 98 分钟
◎导  演 罗杰·米歇尔 Roger Michell
◎编  剧 迈克尔·托尔金 Michael Tolkin
◎主  演 本·阿弗莱克 Ben Affleck
       塞缪尔·杰克逊 Samuel L. Jackson
       托妮·科莱特 Toni Collette
       西德尼·波拉克 Sydney Pollack
       蒂娜·斯隆 Tina Sloan
       理查德·詹金斯 Richard Jenkins
       科尔·霍金斯 Cole Hawkins
       Ileen Getz
       詹妮弗·邓达斯 Jennifer Dundas
       马特·马洛伊 Matt Malloy
       阿曼达·皮特 Amanda Peet
       迈拉·卢克利希亚·泰勒 Myra Lucretia Taylor
       布鲁斯·奥尔特曼 Bruce Altman
       乔·格里法西 Joe Grifasi
       安吉拉·戈塔尔斯 Angela Goethals
       凯文·苏斯曼 Kevin Sussman
       威廉·赫特 William Hurt
       迈克尔·麦格拉斯 Michael McGrath
       约翰·本杰明·西基 John Benjamin Hickey
       迪伦·贝克 Dylan Baker
       苏珊娜·赫弗纳 Suzanne Hevner
       乔丹·盖尔伯 Jordan Gelber
       欧嘉·梅雷迪斯 Olga Merediz
       杰妮·霍蒂谢尔 Jayne Houdyshell
       沙巴兹·雷 Shabazz Ray
       雷蒙德·安东尼·托马斯 Raymond Anthony Thomas
       Sophia Guaspari
       珠儿·布里梅杰 Jewel Brimage
       帕梅拉·哈特 Pamela Hart
       尼尔·琼斯 Neal Jones
       苏珊·布莱克威尔 Susan Blackwell
       伦纳德·L·托马斯 Leonard L. Thomas
       梅丽安·布兰卡特 Myriam Blanckaert
       Salvatore Cavaliere
       Monet Cunningham
       Jason Diamond
       Philip M. Gardiner
       约瑟夫·奥利维拉 Joseph Oliveira
       大卫罗姆 David C. Roehm Sr.
       约翰托宾 John H. Tobin
       Ray Wineteer
       Kim Staunton


◎简  介


  都勒(塞缪尔•杰克逊 Samuel L. Jackson 饰)是一个失意的黑人商贩,为了能获得孩子的抚养权,他费力地争取到了房屋贷款。在酗酒者分享会上,滴酒不沾的他难掩心中的欢喜,言辞激动。凯文(本•阿弗莱克 Ben Affleck 饰)是一家艺术品基金会的白人律师,他曾经帮助某富豪做过慈善捐助工作。但当老人死后,他却在上司的授意下,接连清洗了基金会的老成员,此举被老人的继承人视为背叛,一纸诉状将其告上法庭。

  正在此时,一场车祸让都勒和凯文相遇。因为拿错了对方的文件,两人的命运发生了改变。因为错过了约会的时间,都勒的孩子被判由妻子抚养,从此父子难得见面。而凯文也在法庭上被逼上了绝路,陷入了信任危机。这时,两人才发现彼此的对抗只会让事情更糟,但是化敌为友的路途却荆棘丛生……

Video
ID : 1
Format : HEVC
Format/Info : High Efficiency Video Coding
Format profile : Main 10@L5@High
HDR format : Dolby Vision, Version 1.0, dvhe.05.06, BL+RPU
Codec ID : dvhe
Codec ID/Info : High Efficiency Video Coding with Dolby Vision
Duration : 1 h 38 min
Bit rate : 25.0 Mb/s
Width : 3 840 pixels
Height : 1 640 pixels
Original height : 1 634 pixels
Display aspect ratio : 2.35:1
Original display aspect ratio : 2.35:1
Frame rate mode : Constant
Frame rate : 23.976 (24000/1001) FPS
Color space : YUV
Chroma subsampling : 4:2:0
Bit depth : 10 bits
Bits/(Pixel*Frame) : 0.165
Stream size : 17.2 GiB (98%)
Default : Yes
Alternate group : 1
Encoded date : UTC 2022-05-09 09:01:08
Tagged date : UTC 2022-05-09 09:03:54
Codec configuration box : hvcC+dvcC

Audio
ID : 2
Format : AC-3
Format/Info : Audio Coding 3
Commercial name : Dolby Digital
Codec ID : ac-3
Duration : 1 h 38 min
Bit rate mode : Constant
Bit rate : 384 kb/s
Maximum bit rate : 406 kb/s
Channel(s) : 6 channels
Channel layout : L R C LFE Ls Rs
Sampling rate : 48.0 kHz
Frame rate : 31.250 FPS (1536 SPF)
Compression mode : Lossy
Stream size : 271 MiB (2%)
Title : English
Language : English
Service kind : Complete Main
Default : Yes
Alternate group : 1
Tagged date : UTC 2022-05-09 09:03:54

Text #1
ID : 3
Format : Timed Text
Codec ID : tx3g
Duration : 1 h 38 min
Bit rate mode : Variable
Bit rate : 83 b/s
Stream size : 59.7 KiB (0%)
Title : English
Language : English
Forced : No
Encoded date : UTC 2022-05-09 09:03:53
Tagged date : UTC 2022-05-09 09:03:54

Text #2
ID : 4
Format : Timed Text
Codec ID : tx3g
Duration : 1 h 33 min
Bit rate mode : Variable
Bit rate : 52 b/s
Stream size : 35.7 KiB (0%)
Title : Dutch
Language : Dutch
Forced : No
Encoded date : UTC 2022-05-09 09:03:54
Tagged date : UTC 2022-05-09 09:03:54

Text #3
ID : 5
Format : Timed Text
Codec ID : tx3g
Duration : 1 h 33 min
Bit rate mode : Variable
Bit rate : 61 b/s
Stream size : 41.6 KiB (0%)
Title : French
Language : French
Forced : No
Encoded date : UTC 2022-05-09 09:03:54
Tagged date : UTC 2022-05-09 09:03:54

Text #4
ID : 6
Format : Timed Text
Codec ID : tx3g
Duration : 1 h 33 min
Bit rate mode : Variable
Bit rate : 66 b/s
Stream size : 45.1 KiB (0%)
Title : German
Language : German
Forced : No
Encoded date : UTC 2022-05-09 09:03:54
Tagged date : UTC 2022-05-09 09:03:54

Text #5
ID : 7
Format : Timed Text
Codec ID : tx3g
Duration : 1 h 33 min
Bit rate mode : Variable
Bit rate : 61 b/s
Stream size : 41.8 KiB (0%)
Title : Portuguese
Language : Portuguese
Forced : No
Encoded date : UTC 2022-05-09 09:03:54
Tagged date : UTC 2022-05-09 09:03:54

Text #6
ID : 8
Format : Timed Text
Codec ID : tx3g
Duration : 1 h 33 min
Bit rate mode : Variable
Bit rate : 65 b/s
Stream size : 44.1 KiB (0%)
Title : Spanish
Language : Spanish
Forced : No
Encoded date : UTC 2022-05-09 09:03:54
Tagged date : UTC 2022-05-09 09:03:54
资源速度为零或资源敏感被和谐时,推荐使用qBittorrent等下载软件,有条件的推荐115更好的下载软件!

下载地址:


游客,如果您要查看本帖隐藏内容请回复

游客,如果您要查看本帖隐藏内容请回复

游客,如果您要查看本帖隐藏内容请回复








上一篇:皮囊之下 / Under My Skin (2020) 4k高清版本下载
下一篇:天空中的露西 (简繁中字) / Lucy in the Sky (2019) 4k高清版本下载
回复

使用道具 举报

3

主题

1620

帖子

4502

积分

4K家园VIP

Rank: 9Rank: 9Rank: 9

积分
4502
发表于 2022-5-9 20:37:27 来自手机 | 显示全部楼层
感谢楼主发帖,前排顶起
回复 支持 反对

使用道具 举报

2

主题

1415

帖子

4218

积分

4K家园VIP

Rank: 9Rank: 9Rank: 9

积分
4218
发表于 2022-5-9 20:49:17 | 显示全部楼层
报告!别开枪,我就是路过来看看的。。。
回复 支持 反对

使用道具 举报

37

主题

1508

帖子

4328

积分

4K家园VIP

Rank: 9Rank: 9Rank: 9

积分
4328
发表于 2022-5-9 21:18:25 | 显示全部楼层
LZ是天才,坚定完毕
回复 支持 反对

使用道具 举报

1

主题

1262

帖子

3802

积分

4K家园VIP

Rank: 9Rank: 9Rank: 9

积分
3802
发表于 2022-5-9 21:45:05 | 显示全部楼层
没人回帖。。。我来个吧
回复 支持 反对

使用道具 举报

67

主题

1544

帖子

4450

积分

4K家园VIP

Rank: 9Rank: 9Rank: 9

积分
4450
发表于 2022-5-10 02:34:29 | 显示全部楼层
呵呵。。。
回复 支持 反对

使用道具 举报

0

主题

8

帖子

36

积分

新手上路

Rank: 1

积分
36
发表于 2022-5-13 11:10:47 | 显示全部楼层

Where is Administration 4kjia.com ??

Where is moderator??
I'ts important.
Regards.
回复 支持 反对

使用道具 举报

您需要登录后才可以回帖 登录 | 立即注册

本版积分规则

精彩图文
Archiver|手机版|TAG|Sitemap|新帖|专题|联系我们:邮箱: 4kjia.com@gmail.com   

4k家园   ©2019