[4K电影] 老妈的奇葩任务 / Ride the Eagle (2021) 4k高清版本下载

[复制链接]

1868

主题

2007

帖子

1万

积分

超级版主

Rank: 8Rank: 8

积分
15027
 楼主| 发表于 2022-5-15 21:35:25 | 显示全部楼层 |阅读模式
QQ图片20220515212201_副本.png

◎译  名 老妈的奇葩任务 / 遗产任务 / 骑鹰
◎片  名 Ride the Eagle
◎年  代 2021
◎产  地 美国
◎类  别 剧情 / 喜剧
◎语  言 英语
◎上映日期 2021-07-30(美国)
◎IMDb评分  6.4/10 from 2219 users
◎IMDb链接  https://www.imdb.com/title/tt14673560/
◎豆瓣评分 0/10 from 0 users
◎豆瓣链接 https://movie.douban.com/subject/35490904/
◎导  演 特伦特·奥唐纳 Trent O'Donnell
◎编  剧 杰克·约翰逊 Jake Johnson / 特伦特·奥唐纳 Trent O'Donnell
◎演  员 杰克·约翰逊 Jake M. Johnson
       J·K·西蒙斯 J.K. Simmons
       苏珊·萨兰登 Susan Sarandon



◎简  介

  莱夫疏远的母亲去世,给他留下了“有条件的遗产”在搬进她风景如画的优胜美地小屋之前,他必须完成她精心设计的、有时令人怀疑的待办事项清单。

Video
ID : 1
Format : HEVC
Format/Info : High Efficiency Video Coding
Format profile : Main 10@L5@High
Codec ID : V_MPEGH/ISO/HEVC
Duration : 1 h 28 min
Bit rate : 11.9 Mb/s
Width : 3 836 pixels
Height : 1 596 pixels
Display aspect ratio : 2.40:1
Frame rate mode : Constant
Frame rate : 23.976 FPS
Color space : YUV
Chroma subsampling : 4:2:0
Bit depth : 10 bits
Bits/(Pixel*Frame) : 0.081
Stream size : 7.38 GiB (97%)
Default : Yes
Forced : No
Color range : Limited
Color primaries : BT.709
Transfer characteristics : BT.709
Matrix coefficients : BT.709

Audio
ID : 2
Format : AC-3
Format/Info : Audio Coding 3
Commercial name : Dolby Digital
Codec ID : A_AC3
Duration : 1 h 28 min
Bit rate mode : Constant
Bit rate : 384 kb/s
Channel(s) : 6 channels
Channel layout : L R C LFE Ls Rs
Sampling rate : 48.0 kHz
Frame rate : 31.250 FPS (1536 SPF)
Compression mode : Lossy
Stream size : 243 MiB (3%)
Language : English
Service kind : Complete Main
Default : Yes
Forced : No

Text
ID : 3
Format : UTF-8
Codec ID : S_TEXT/UTF8
Codec ID/Info : UTF-8 Plain Text
Duration : 1 h 27 min
Bit rate : 69 b/s
Count of elements : 1285
Stream size : 44.9 KiB (0%)
Title : English CC
Language : English
Default : No
Forced : No

Menu
00:00:00.000 : en:Chapter 01
00:10:01.184 : en:Chapter 02
00:19:54.110 : en:Chapter 03
00:29:38.820 : en:Chapter 04
00:39:22.737 : en:Chapter 05
00:49:22.087 : en:Chapter 06
00:59:14.596 : en:Chapter 07
01:09:33.173 : en:Chapter 08
01:23:33.054 : en:Chapter 09


资源速度为零或资源敏感被和谐时,推荐使用qBittorrent等下载软件,有条件的推荐115更好的下载软件!

下载地址:


游客,如果您要查看本帖隐藏内容请回复







上一篇:球鞋灰姑娘(简繁中字)/Sneakerella (2022) 4k高清版本下载
下一篇:读书会 / Book Club (2018) 4k高清版本下载
回复

使用道具 举报

201

主题

1743

帖子

4791

积分

4K家园VIP

Rank: 9Rank: 9Rank: 9

积分
4791
发表于 2022-5-15 21:35:29 | 显示全部楼层
支持一下楼主,顶起来
回复 支持 反对

使用道具 举报

51

主题

1475

帖子

4329

积分

4K家园VIP

Rank: 9Rank: 9Rank: 9

积分
4329
发表于 2022-5-15 21:49:17 | 显示全部楼层
高手云集 果断围观
回复 支持 反对

使用道具 举报

0

主题

42

帖子

1290

积分

注册会员

Rank: 2

积分
1290
发表于 2022-5-15 22:02:01 | 显示全部楼层
好电影,收藏啦!
回复 支持 反对

使用道具 举报

2

主题

1354

帖子

3930

积分

4K家园VIP

Rank: 9Rank: 9Rank: 9

积分
3930
发表于 2022-5-16 01:00:21 | 显示全部楼层
我只是路过,不发表意见
回复 支持 反对

使用道具 举报

0

主题

1602

帖子

4390

积分

4K家园VIP

Rank: 9Rank: 9Rank: 9

积分
4390
发表于 2022-5-16 04:18:35 | 显示全部楼层
看起来不错
回复 支持 反对

使用道具 举报

66

主题

1540

帖子

4484

积分

4K家园VIP

Rank: 9Rank: 9Rank: 9

积分
4484
发表于 2022-5-16 05:10:02 | 显示全部楼层
前排支持下
回复 支持 反对

使用道具 举报

0

主题

1

帖子

6

积分

新手上路

Rank: 1

积分
6
发表于 2022-5-17 01:59:19 | 显示全部楼层

free online pron

free online pron
回复 支持 反对

使用道具 举报

您需要登录后才可以回帖 登录 | 立即注册

本版积分规则

精彩图文
Archiver|手机版|TAG|Sitemap|新帖|专题|联系我们:邮箱: 4kjia.com@gmail.com   

4k家园   ©2019