[4K电影] 读书会 / Book Club (2018) 4k高清版本下载

[复制链接]

2299

主题

2448

帖子

1万

积分

超级版主

Rank: 8Rank: 8

积分
17752
 楼主| 发表于 2022-5-15 21:41:03 | 显示全部楼层 |阅读模式

QQ图片20220515211250_副本.png


◎译  名 读书会 / 读书俱乐部 / 高年级姐妹会(台)
◎片  名 Book Club
◎年  代 2018
◎产  地 美国
◎类  别 剧情 / 喜剧 / 爱情
◎语  言 英语
◎上映日期 2018-05-18(美国)
◎IMDb评分  6.1/10 from 27894 users
◎IMDb链接  http://www.imdb.com/title/tt6857166
◎豆瓣评分 6.8/10 from 4521 users
◎豆瓣链接 https://movie.douban.com/subject/27038254/
◎片  长 104分钟
◎导  演 比尔·霍德曼 Bill Holderman
◎编  剧 比尔·霍德曼 Bill Holderman / 艾琳·西姆斯 Erin Simms
◎主  演 艾丽西亚·希尔维斯通 Alicia Silverstone
       简·方达 Jane Fonda
       玛丽·斯汀伯根 Mary Steenburgen
       安迪·加西亚 Andy Garcia
       黛安·基顿 Diane Keaton
       坎迪斯·伯根 Candice Bergen
       理查德·德莱弗斯 Richard Dreyfuss
       唐·约翰逊 Don Johnson
       华莱士·肖恩 Wallace Shawn
       莫洽·梦若 Mircea Monroe
       凯蒂·阿赛尔顿 Katie Aselton
       格雷格·T·尼尔森 Craig T. Nelson
       小艾德·博格里 Ed Begley Jr.
       汤米·杜威 Tommy Dewey
       丽丽·博尔丹 Lili Bordán


◎简  介  


  剧情讲述四个处于60几岁的终身之交朋友,在她们的每月读书俱乐部活动中,阅读了《五十度灰》,生活发生了翻天覆地的变化。

Video
ID : 1
Format : HEVC
Format/Info : High Efficiency Video Coding
Format profile : Main 10@L5@High
HDR format : SMPTE ST 2094 App 4, Version 1, HDR10+ Profile B compatible
Codec ID : V_MPEGH/ISO/HEVC
Duration : 1 h 43 min
Bit rate : 14.1 Mb/s
Width : 3 840 pixels
Height : 2 160 pixels
Display aspect ratio : 16:9
Frame rate mode : Constant
Frame rate : 23.976 (24000/1001) FPS
Color space : YUV
Chroma subsampling : 4:2:0 (Type 2)
Bit depth : 10 bits
Bits/(Pixel*Frame) : 0.071
Stream size : 10.2 GiB (79%)
Language : English
Default : Yes
Forced : No
Color range : Full
Color primaries : BT.2020
Transfer characteristics : PQ
Matrix coefficients : BT.2020 non-constant
Mastering display color primaries : Display P3
Mastering display luminance : min: 0.0050 cd/m2, max: 4000 cd/m2

Audio #1
ID : 2
Format : DTS XLL
Format/Info : Digital Theater Systems
Commercial name : DTS-HD Master Audio
Codec ID : A_DTS
Duration : 1 h 43 min
Bit rate mode : Variable
Bit rate : 3 281 kb/s
Channel(s) : 6 channels
Channel layout : C L R Ls Rs LFE
Sampling rate : 48.0 kHz
Frame rate : 93.750 FPS (512 SPF)
Bit depth : 24 bits
Compression mode : Lossless
Stream size : 2.38 GiB (18%)
Title : DTS-HD MA 5.1
Language : English
Default : Yes
Forced : No

Audio #2
ID : 3
Format : AC-3
Format/Info : Audio Coding 3
Commercial name : Dolby Digital
Codec ID : A_AC3
Duration : 1 h 43 min
Bit rate mode : Constant
Bit rate : 384 kb/s
Channel(s) : 6 channels
Channel layout : L R C LFE Ls Rs
Sampling rate : 48.0 kHz
Frame rate : 31.250 FPS (1536 SPF)
Compression mode : Lossy
Stream size : 285 MiB (2%)
Title : English
Language : English
Service kind : Complete Main
Default : No
Forced : No

Text #1
ID : 4
Format : UTF-8
Codec ID : S_TEXT/UTF8
Codec ID/Info : UTF-8 Plain Text
Duration : 1 h 36 min
Bit rate : 86 b/s
Count of elements : 1970
Stream size : 61.2 KiB (0%)
Title : English (SDH)
Language : English
Default : Yes
Forced : No

Text #2
ID : 5
Format : PGS
Muxing mode : zlib
Codec ID : S_HDMV/PGS
Codec ID/Info : Picture based subtitle format used on BDs/HD-DVDs
Duration : 2 s 586 ms
Bit rate : 70.5 kb/s
Count of elements : 2
Stream size : 22.3 KiB (0%)
Title : Forced
Language : English
Default : No
Forced : No

Text #3
ID : 6
Format : PGS
Muxing mode : zlib
Codec ID : S_HDMV/PGS
Codec ID/Info : Picture based subtitle format used on BDs/HD-DVDs
Duration : 1 h 36 min
Bit rate : 58.2 kb/s
Count of elements : 3532
Stream size : 40.2 MiB (0%)
Language : English
Default : No
Forced : No

Text #4
ID : 7
Format : PGS
Muxing mode : zlib
Codec ID : S_HDMV/PGS
Codec ID/Info : Picture based subtitle format used on BDs/HD-DVDs
Duration : 1 h 36 min
Bit rate : 63.3 kb/s
Count of elements : 3948
Stream size : 43.7 MiB (0%)
Title : SDH
Language : English
Default : No
Forced : No

Text #5
ID : 8
Format : PGS
Muxing mode : zlib
Codec ID : S_HDMV/PGS
Codec ID/Info : Picture based subtitle format used on BDs/HD-DVDs
Duration : 1 h 36 min
Bit rate : 47.8 kb/s
Count of elements : 3264
Stream size : 32.9 MiB (0%)
Language : French
Default : No
Forced : No

Text #6
ID : 9
Format : PGS
Muxing mode : zlib
Codec ID : S_HDMV/PGS
Codec ID/Info : Picture based subtitle format used on BDs/HD-DVDs
Duration : 1 h 36 min
Bit rate : 57.4 kb/s
Count of elements : 3592
Stream size : 39.6 MiB (0%)
Title : Latin American
Language : Spanish
Default : No
Forced : No

Menu
00:00:00.000 : en:Chapter 1
00:09:32.572 : en:Chapter 2
00:17:58.494 : en:Chapter 3
00:28:37.174 : en:Chapter 4
00:37:45.430 : en:Chapter 5
00:46:38.629 : en:Chapter 6
00:53:34.461 : en:Chapter 7
01:02:36.586 : en:Chapter 8
01:13:06.757 : en:Chapter 9
01:21:36.183 : en:Chapter 10
01:31:12.634 : en:Chapter 11
01:37:14.662 : en:Chapter 12


资源速度为零或资源敏感被和谐时,推荐使用qBittorrent等下载软件,有条件的推荐115更好的下载软件!

下载地址:


游客,如果您要查看本帖隐藏内容请回复






上一篇:老妈的奇葩任务 / Ride the Eagle (2021) 4k高清版本下载
下一篇:绞肉行动 / Operation Mincemeat (2021) 4k高清版本下载
回复

使用道具 举报

62

主题

1511

帖子

4413

积分

4K家园VIP

Rank: 9Rank: 9Rank: 9

积分
4413
发表于 2022-5-15 21:41:08 来自手机 | 显示全部楼层
没明白
回复 支持 反对

使用道具 举报

3

主题

1329

帖子

3793

积分

4K家园VIP

Rank: 9Rank: 9Rank: 9

积分
3793
发表于 2022-5-23 12:29:52 | 显示全部楼层
小白一个 顶一下
回复 支持 反对

使用道具 举报

2

主题

1376

帖子

3948

积分

4K家园VIP

Rank: 9Rank: 9Rank: 9

积分
3948
发表于 2022-5-24 08:07:50 | 显示全部楼层
路过的帮顶
回复 支持 反对

使用道具 举报

1

主题

1250

帖子

3768

积分

4K家园VIP

Rank: 9Rank: 9Rank: 9

积分
3768
发表于 2022-5-27 14:48:15 | 显示全部楼层
楼主呀,,,您太有才了。。。
回复 支持 反对

使用道具 举报

56

主题

1501

帖子

4359

积分

4K家园VIP

Rank: 9Rank: 9Rank: 9

积分
4359
发表于 2022-5-30 13:44:00 | 显示全部楼层
垃圾
回复 支持 反对

使用道具 举报

您需要登录后才可以回帖 登录 | 立即注册

本版积分规则

精彩图文
Archiver|手机版|TAG|Sitemap|新帖|专题|联系我们:邮箱: 4kjia.com@gmail.com   

4k家园   ©2019