[4K电影] 亿万富翁 / Kajillionaire (2020) 4k高清版本下载

[复制链接]

1868

主题

2007

帖子

1万

积分

超级版主

Rank: 8Rank: 8

积分
15027
 楼主| 发表于 2022-5-17 10:35:33 | 显示全部楼层 |阅读模式
QQ图片20220517102831_副本.png

◎译  名 亿万富翁/大富翁/超亿万富翁
◎片  名 Kajillionaire
◎年  代 2020
◎产  地 美国
◎类  别 剧情 / 犯罪
◎语  言 英语
◎上映日期 2020-01-25(圣丹斯电影节) / 2020-09-25(美国)
◎IMDb评分  6.4/10 from 17302 users
◎IMDb链接  https://www.imdb.com/title/tt8143990/
◎豆瓣评分 6.8/10 from 2453 users
◎豆瓣链接 https://movie.douban.com/subject/30172002/
◎片  长 106分钟
◎导  演 米兰达·裘丽 Miranda July
◎编  剧 米兰达·裘丽 Miranda July
◎主  演 埃文·蕾切尔·伍德 Evan Rachel Wood
       吉娜·罗德里格兹 Gina Rodriguez
       德博拉·温格 Debra Winger
       理查德·詹金斯 Richard Jenkins
       达明·乔伊·伦道夫 Da'Vine Joy Randolph
       戴安娜·玛丽亚·里瓦 Diana Maria Riva
       马克·伊瓦涅 Mark Ivanir
       亚当·巴特利 Adam Bartley
       斯蒂夫·朴 Steve Park
       尼基·卡斯蒂略 Nikki Castillo
       戴维·尤里 David Ury
       埃琳娜·坎贝尔-马丁内斯 Elena Campbell-Martinez
       伊恩·卡塞尔伯里 Ian Casselberry
       贝琪·贝克 Betsy Baker
       布兰顿·莫拉莱斯 Brandon Morales
       本·康尼斯伯格 Ben Konigsberg
       马修·福斯特 Matthew Foster
       伊桑·乔什·李 Ethan Josh Lee
       安德鲁·霍克斯 Andrew Hawkes
       杰弗瑞·尼克拉斯·布朗 Jeffrey Nicholas Brown
       迈克尔·吐温 Michael Twaine
       米兰达·裘丽 Miranda July



◎简  介

  这部电影是多媒体艺术家米兰达·裘丽的新片,它是一部关于骗子家庭的原创喜剧。骗子Theresa和Robert花了26年时间把女儿Old Dolio(德妹扮演)带大,让她抓住一切机会行骗和偷窃。但当父母把一个素不相识的女人梅兰妮请来做计划中的工作时,家里的日常生活就变得不正常了。梅兰妮性格泼辣可爱,颠覆了Old Dolio的家庭和世界观。Old Dolio渴望传统家庭的温暖,而梅兰妮却享受着诈骗犯的刺激生活。

Video
ID : 1
Format : HEVC
Format/Info : High Efficiency Video Coding
Format profile : Main 10@L5@Main
HDR format : SMPTE ST 2094 App 4, Version 1, HDR10+ Profile B compatible
Codec ID : V_MPEGH/ISO/HEVC
Duration : 1 h 44 min
Bit rate : 14.3 Mb/s
Width : 3 840 pixels
Height : 1 600 pixels
Display aspect ratio : 2.40:1
Frame rate mode : Constant
Frame rate : 23.976 (24000/1001) FPS
Color space : YUV
Chroma subsampling : 4:2:0
Bit depth : 10 bits
Bits/(Pixel*Frame) : 0.097
Stream size : 10.5 GiB (96%)
Language : English
Default : Yes
Forced : No
Color range : Limited
Color primaries : BT.2020
Transfer characteristics : PQ
Matrix coefficients : BT.2020 non-constant
Mastering display color primaries : Display P3
Mastering display luminance : min: 0.0050 cd/m2, max: 1000 cd/m2
Maximum Content Light Level : 568 cd/m2
Maximum Frame-Average Light Level : 148 cd/m2

Audio
ID : 2
Format : E-AC-3
Format/Info : Enhanced AC-3
Commercial name : Dolby Digital Plus
Codec ID : A_EAC3
Duration : 1 h 44 min
Bit rate mode : Constant
Bit rate : 640 kb/s
Channel(s) : 6 channels
Channel layout : L R C LFE Ls Rs
Sampling rate : 48.0 kHz
Frame rate : 31.250 FPS (1536 SPF)
Compression mode : Lossy
Stream size : 480 MiB (4%)
Language : English
Service kind : Complete Main
Default : Yes
Forced : No

Text
ID : 3
Format : UTF-8
Codec ID : S_TEXT/UTF8
Codec ID/Info : UTF-8 Plain Text
Duration : 1 h 43 min
Bit rate : 62 b/s
Count of elements : 1723
Stream size : 47.4 KiB (0%)
Title : SDH
Language : English
Default : No
Forced : No

Menu
00:00:00.000 : en:Studio Logo
00:00:57.000 : en:Opening Credits
00:01:04.000 : en:Scene 3
00:03:36.000 : en:Opening Credits
00:03:52.000 : en:Scene 5
00:06:07.000 : en:Scene 6
00:09:16.000 : en:Scene 7
00:11:40.000 : en:Scene 8
00:12:22.000 : en:Scene 9
00:14:16.000 : en:Scene 10
00:14:44.000 : en:Scene 11
00:16:53.000 : en:Scene 12
00:19:54.000 : en:Scene 13
00:24:10.000 : en:Scene 14
00:26:40.000 : en:Scene 15
00:29:45.000 : en:Scene 16
00:31:41.000 : en:Scene 17
00:36:11.000 : en:Scene 18
00:40:37.000 : en:Scene 19
00:42:47.000 : en:Scene 20
00:50:37.000 : en:Scene 21
00:54:25.000 : en:Scene 22
00:56:52.000 : en:Scene 23
00:59:51.000 : en:Scene 24
01:04:48.000 : en:Scene 25
01:08:30.000 : en:Scene 26
01:13:45.000 : en:Scene 27
01:21:08.000 : en:Scene 28
01:25:26.000 : en:Scene 29
01:32:40.000 : en:Scene 30
01:33:18.000 : en:Scene 31
01:36:47.000 : en:Scene 32
01:38:50.000 : en:End Credits


资源速度为零或资源敏感被和谐时,推荐使用qBittorrent等下载软件,有条件的推荐115更好的下载软件!

下载地址:


游客,如果您要查看本帖隐藏内容请回复


以下为以往链接
游客,如果您要查看本帖隐藏内容请回复

游客,如果您要查看本帖隐藏内容请回复





上一篇:金翅雀(内封简繁中字)/ The Goldfinch (2019) 4k高清版本下载
下一篇:蕾哈娜内衣秀3(内封简繁中字)(2021) 4k高清版本下载
回复

使用道具 举报

3

主题

1347

帖子

4063

积分

4K家园VIP

Rank: 9Rank: 9Rank: 9

积分
4063
发表于 2022-5-17 10:35:38 | 显示全部楼层
一直在看
回复 支持 反对

使用道具 举报

0

主题

1

帖子

6

积分

新手上路

Rank: 1

积分
6
发表于 2022-5-17 21:12:20 | 显示全部楼层
感谢分享
回复

使用道具 举报

51

主题

1406

帖子

4050

积分

4K家园VIP

Rank: 9Rank: 9Rank: 9

积分
4050
发表于 2022-5-18 08:34:59 来自手机 | 显示全部楼层
鄙视楼下的顶帖没我快,哈哈
回复 支持 反对

使用道具 举报

0

主题

1

帖子

10

积分

新手上路

Rank: 1

积分
10
发表于 2022-5-22 20:21:21 | 显示全部楼层
感谢分享
回复

使用道具 举报

0

主题

1

帖子

6

积分

新手上路

Rank: 1

积分
6
发表于 2022-5-24 16:18:07 | 显示全部楼层

real naked milfs

real naked milfs
回复 支持 反对

使用道具 举报

48

主题

1549

帖子

4471

积分

4K家园VIP

Rank: 9Rank: 9Rank: 9

积分
4471
发表于 2022-5-27 09:02:06 | 显示全部楼层
楼主呀,,,您太有才了。。。
回复 支持 反对

使用道具 举报

53

主题

1533

帖子

4439

积分

4K家园VIP

Rank: 9Rank: 9Rank: 9

积分
4439
发表于 2022-5-31 01:26:50 来自手机 | 显示全部楼层
无论是不是沙发都得回复下
回复 支持 反对

使用道具 举报

0

主题

1

帖子

112

积分

新手上路

Rank: 1

积分
112
发表于 2022-5-31 11:48:59 | 显示全部楼层
感谢分享
回复

使用道具 举报

50

主题

1489

帖子

4239

积分

4K家园VIP

Rank: 9Rank: 9Rank: 9

积分
4239
发表于 2022-6-3 11:17:58 | 显示全部楼层
路过 帮顶 嘿嘿
回复 支持 反对

使用道具 举报

您需要登录后才可以回帖 登录 | 立即注册

本版积分规则

精彩图文
Archiver|手机版|TAG|Sitemap|新帖|专题|联系我们:邮箱: 4kjia.com@gmail.com   

4k家园   ©2019