[4K电影] 王国:北方的阿信/Kingdom: Ashin of the North (2021)4k高清版本下载

[复制链接]

1868

主题

2007

帖子

1万

积分

超级版主

Rank: 8Rank: 8

积分
15027
 楼主| 发表于 2022-5-17 11:12:26 | 显示全部楼层 |阅读模式
本帖最后由 最爱4K哟 于 2022-5-17 11:14 编辑

QQ图片20220517111051_副本.png

◎译  名 王国:北方的阿信 / 王国:阿信传 / 尸战朝鲜:雅信传(港 / 台) / 李尸朝鲜:外传 / 尸战朝鲜:前传 / 尸战朝鲜:阿信传 / 王国:前传 / 王国外传 / 王国外传:阿信篇 / 北方的阿信 / Kingdom: Ashin of the North / Kingdom: Ashin-jeon
◎片  名 Kingdom.Ashin.of.the.North
◎年  代 2021
◎产  地 韩国
◎类  别 剧情 / 恐怖 / 古装
◎语  言 韩语
◎上映日期 2021-07-23(韩国)
◎IMDb评分  7.0/10 from 10476 users
◎IMDb链接  https://www.imdb.com/title/tt13412252/
◎豆瓣评分 7.0/10 from 64848 users
◎豆瓣链接 https://movie.douban.com/subject/35151297/
◎片  长 92分钟
◎导  演 金成勋 Seong-hoon Kim
◎编  剧 金银姬 Eun-hee Kim
◎演  员 全智贤 Gianna Jun
       朴秉恩 Byung-eun Park
       金诗雅 Si-ah Kim
       金雷夏 Roe-ha Kim
       具乔焕 Gu Kyohwan



◎简  介


  阿信和其父是定居于朝鲜王国的番邦异族。他们遇到了一种神秘疾病,这进而导致雅信走上了背叛、偏见和复仇的道路。

Video
ID : 1
Format : HEVC
Format/Info : High Efficiency Video Coding
Format profile : Main 10@L5@Main
Codec ID : V_MPEGH/ISO/HEVC
Duration : 1 h 33 min
Bit rate : 11.4 Mb/s
Width : 3 840 pixels
Height : 2 160 pixels
Display aspect ratio : 16:9
Frame rate mode : Constant
Frame rate : 23.976 (24000/1001) FPS
Color space : YUV
Chroma subsampling : 4:2:0
Bit depth : 10 bits
Bits/(Pixel*Frame) : 0.057
Stream size : 7.48 GiB (88%)
Default : Yes
Forced : No
Color range : Limited
Color primaries : BT.709
Transfer characteristics : BT.709
Matrix coefficients : BT.709

Audio #1
ID : 2
Format : E-AC-3 JOC
Format/Info : Enhanced AC-3 with Joint Object Coding
Commercial name : Dolby Digital Plus with Dolby Atmos
Codec ID : A_EAC3
Duration : 1 h 33 min
Bit rate mode : Constant
Bit rate : 768 kb/s
Channel(s) : 6 channels
Channel layout : L R C LFE Ls Rs
Sampling rate : 48.0 kHz
Frame rate : 31.250 FPS (1536 SPF)
Compression mode : Lossy
Stream size : 515 MiB (6%)
Language : Korean
Service kind : Complete Main
Default : Yes
Forced : No
Complexity index : 16
Number of dynamic objects : 15
Bed channel count : 1 channel
Bed channel configuration : LFE

Audio #2
ID : 3
Format : E-AC-3 JOC
Format/Info : Enhanced AC-3 with Joint Object Coding
Commercial name : Dolby Digital Plus with Dolby Atmos
Codec ID : A_EAC3
Duration : 1 h 33 min
Bit rate mode : Constant
Bit rate : 768 kb/s
Channel(s) : 6 channels
Channel layout : L R C LFE Ls Rs
Sampling rate : 48.0 kHz
Frame rate : 31.250 FPS (1536 SPF)
Compression mode : Lossy
Stream size : 515 MiB (6%)
Language : English
Service kind : Complete Main
Default : No
Forced : No
Complexity index : 16
Number of dynamic objects : 15
Bed channel count : 1 channel
Bed channel configuration : LFE

Text #1
ID : 4
Format : UTF-8
Codec ID : S_TEXT/UTF8
Codec ID/Info : UTF-8 Plain Text
Duration : 1 h 28 min
Bit rate : 53 b/s
Count of elements : 974
Stream size : 34.8 KiB (0%)
Title : SDH
Language : Korean
Default : No
Forced : No

Text #2
ID : 5
Format : UTF-8
Codec ID : S_TEXT/UTF8
Codec ID/Info : UTF-8 Plain Text
Duration : 1 h 32 min
Bit rate : 20 b/s
Count of elements : 430
Stream size : 13.7 KiB (0%)
Language : German
Default : No
Forced : No

Text #3
ID : 6
Format : UTF-8
Codec ID : S_TEXT/UTF8
Codec ID/Info : UTF-8 Plain Text
Duration : 1 h 27 min
Bit rate : 21 b/s
Count of elements : 428
Stream size : 13.8 KiB (0%)
Language : English
Default : No
Forced : No

Text #4
ID : 7
Format : UTF-8
Codec ID : S_TEXT/UTF8
Codec ID/Info : UTF-8 Plain Text
Duration : 1 h 32 min
Bit rate : 19 b/s
Count of elements : 429
Stream size : 12.9 KiB (0%)
Language : English
Default : No
Forced : No

Text #5
ID : 8
Format : UTF-8
Codec ID : S_TEXT/UTF8
Codec ID/Info : UTF-8 Plain Text
Duration : 1 h 28 min
Bit rate : 35 b/s
Count of elements : 938
Stream size : 23.5 KiB (0%)
Title : SDH
Language : English
Default : No
Forced : No

Text #6
ID : 9
Format : UTF-8
Codec ID : S_TEXT/UTF8
Codec ID/Info : UTF-8 Plain Text
Duration : 1 h 32 min
Bit rate : 20 b/s
Count of elements : 434
Stream size : 13.9 KiB (0%)
Language : French
Default : No
Forced : No

Text #7
ID : 10
Format : UTF-8
Codec ID : S_TEXT/UTF8
Codec ID/Info : UTF-8 Plain Text
Duration : 1 h 32 min
Bit rate : 29 b/s
Count of elements : 430
Stream size : 20.2 KiB (0%)
Language : Russian
Default : No
Forced : No

Text #8
ID : 11
Format : UTF-8
Codec ID : S_TEXT/UTF8
Codec ID/Info : UTF-8 Plain Text
Duration : 1 h 32 min
Bit rate : 30 b/s
Count of elements : 430
Stream size : 20.6 KiB (0%)
Language : Ukrainian
Default : No
Forced : No

Menu
00:00:00.000 : enart 01
01:29:03.450 : en:Credits

资源速度为零或资源敏感被和谐时,推荐使用qBittorrent等下载软件,有条件的推荐115更好的下载软件!

下载地址:


游客,如果您要查看本帖隐藏内容请回复





上一篇:蕾哈娜内衣秀3(内封简繁中字)(2021) 4k高清版本下载
下一篇:刺猬索尼克2 (内封中字)/Sonic the Hedgehog 2 (2022)4k高清版本下载
回复

使用道具 举报

1

主题

1544

帖子

4480

积分

4K家园VIP

Rank: 9Rank: 9Rank: 9

积分
4480
发表于 2022-5-17 11:12:31 | 显示全部楼层
不错 支持一个了
回复 支持 反对

使用道具 举报

3

主题

1385

帖子

4179

积分

4K家园VIP

Rank: 9Rank: 9Rank: 9

积分
4179
发表于 2022-5-17 13:09:42 | 显示全部楼层
看起来不错
回复 支持 反对

使用道具 举报

0

主题

254

帖子

1610

积分

4K家园VIP

Rank: 9Rank: 9Rank: 9

积分
1610
QQ
发表于 2022-5-17 13:57:37 | 显示全部楼层
让 江小白 来看看帖子里藏了啥好东西~~~
回复 支持 反对

使用道具 举报

0

主题

2

帖子

12

积分

新手上路

Rank: 1

积分
12
发表于 2022-5-18 10:12:52 | 显示全部楼层
111
回复

使用道具 举报

0

主题

381

帖子

2331

积分

注册会员

Rank: 2

积分
2331
发表于 2022-5-18 12:07:12 | 显示全部楼层
谢谢楼主分享
回复 支持 反对

使用道具 举报

1

主题

1360

帖子

4108

积分

4K家园VIP

Rank: 9Rank: 9Rank: 9

积分
4108
发表于 2022-5-19 01:27:21 来自手机 | 显示全部楼层
垃圾
回复 支持 反对

使用道具 举报

1

主题

1603

帖子

4417

积分

4K家园VIP

Rank: 9Rank: 9Rank: 9

积分
4417
发表于 2022-5-20 10:53:23 | 显示全部楼层
啥玩应呀
回复 支持 反对

使用道具 举报

0

主题

2

帖子

90

积分

4K家园VIP

Rank: 9Rank: 9Rank: 9

积分
90
发表于 2022-5-20 13:24:07 | 显示全部楼层
楼主 啥时候发个字幕啊
回复 支持 反对

使用道具 举报

3

主题

1316

帖子

3754

积分

4K家园VIP

Rank: 9Rank: 9Rank: 9

积分
3754
发表于 2022-5-21 20:48:11 | 显示全部楼层
感谢楼主发帖,前排顶起
回复 支持 反对

使用道具 举报

您需要登录后才可以回帖 登录 | 立即注册

本版积分规则

精彩图文
Archiver|手机版|TAG|Sitemap|新帖|专题|联系我们:邮箱: 4kjia.com@gmail.com   

4k家园   ©2019