坎迪 / Candy (2022) / 第一季全5集/4K高清版本下载

[复制链接]

155

主题

176

帖子

1760

积分

版主

Rank: 7Rank: 7Rank: 7

积分
1760
 楼主| 发表于 2022-5-18 10:31:22 | 显示全部楼层 |阅读模式
p2871442231_副本.jpg

◎译  名 坎迪
◎片  名 Candy
◎年  代 2022
◎产  地 美国
◎类  别 剧情/悬疑/惊悚/传记/犯罪
◎语  言 英语
◎上映日期 2022-05-09(美国)
◎IMDb评分  7.4/10 from 1262 users
◎IMDb链接  https://www.imdb.com/title/tt11052470/
◎豆瓣评分 /10 from 0 users
◎豆瓣链接 https://douban.com/subject/35133685/
◎集  数 5
◎导  演 迈克尔·乌彭达尔 Michael Uppendahl
◎编  剧 罗宾·费思 Robin Veith / 尼克·安托斯卡 Nick Antosca
◎主  演 杰西卡·贝尔 Jessica Biel
       梅兰妮·林斯基 Melanie Lynskey
       莎朗·莫里斯 Sharon Morris
       布鲁斯·麦金农 Bruce McKinnon
       Annie Cook Annie Cook
       巴勃罗·施瑞博尔 Pablo Schreiber
       蒂莫西·西蒙斯 Timothy Simons
       赛琳娜·安杜兹 Selena Anduze
       利兹·麦吉弗 Liz McGeever
       普雷斯顿·詹姆斯·希利耶 Preston James Hillier


◎简  介


  基于真实罪案故事改编,聚焦得州杀手Candy Montgomery和她的受害者Betty Gore。故事发生在1980年的得克萨斯,Candy Montgomery看似生活美满——丈夫工作体面,人也体贴,还有一儿一女,一家人住在新开发郊区一栋不错的房子里。那她为何要用一把斧子残忍杀害自己教会里的朋友呢? 本剧由《恶行》主创之一Nick Antosca、编剧Robin Veith共同开发,试播集编剧为Veith,导演是Michael Uppendahl(《弹劾:美国罪案故事》)。
Video
ID : 1
Format : HEVC
Format/Info : High Efficiency Video Coding
Format profile : Main 10@L5.1@Main
Codec ID : V_MPEGH/ISO/HEVC
Duration : 55 min 33 s
Bit rate : 14.6 Mb/s
Width : 3 840 pixels
Height : 2 160 pixels
Display aspect ratio : 16:9
Frame rate mode : Constant
Frame rate : 23.976 (24000/1001) FPS
Color space : YUV
Chroma subsampling : 4:2:0
Bit depth : 10 bits
Bits/(Pixel*Frame) : 0.074
Stream size : 5.67 GiB (96%)
Default : Yes
Forced : No

Audio
ID : 2
Format : E-AC-3
Format/Info : Enhanced AC-3
Commercial name : Dolby Digital Plus
Codec ID : A_EAC3
Duration : 55 min 33 s
Bit rate mode : Constant
Bit rate : 256 kb/s
Channel(s) : 6 channels
Channel layout : L R C LFE Ls Rs
Sampling rate : 48.0 kHz
Frame rate : 31.250 FPS (1536 SPF)
Compression mode : Lossy
Stream size : 102 MiB (2%)
Language : English
Service kind : Complete Main
Default : Yes
Forced : No

Text #1
ID : 3
Format : UTF-8
Codec ID : S_TEXT/UTF8
Codec ID/Info : UTF-8 Plain Text
Title : English
Language : English
Default : No
Forced : No

Text #2
ID : 4
Format : UTF-8
Codec ID : S_TEXT/UTF8
Codec ID/Info : UTF-8 Plain Text
Title : English [SDH]
Language : English
Default : No
Forced : No

Text #3
ID : 5
Format : UTF-8
Codec ID : S_TEXT/UTF8
Codec ID/Info : UTF-8 Plain Text
Title : Spanish
Language : Spanish
Default : No
Forced : No

Text #4
ID : 6
Format : UTF-8
Codec ID : S_TEXT/UTF8
Codec ID/Info : UTF-8 Plain Text
Title : Spanish [SDH]
Language : Spanish
Default : No
Forced : No

下载地址:

游客,如果您要查看本帖隐藏内容请回复

游客,如果您要查看本帖隐藏内容请回复
 





上一篇:我是遗物整理师 (2022) / 第一季全10集/4K高清版本下载
下一篇:他的秘密生活 (简繁中字) (2022) / 第一季全8集/4K高清版本下载
回复

使用道具 举报

40

主题

1508

帖子

4336

积分

4K家园VIP

Rank: 9Rank: 9Rank: 9

积分
4336
发表于 2022-5-18 10:31:43 | 显示全部楼层
哈哈,我只看看不说话
回复 支持 反对

使用道具 举报

5

主题

1674

帖子

4600

积分

4K家园VIP

Rank: 9Rank: 9Rank: 9

积分
4600
发表于 2022-5-18 13:28:52 来自手机 | 显示全部楼层
呵呵。。。
回复 支持 反对

使用道具 举报

57

主题

1538

帖子

4472

积分

4K家园VIP

Rank: 9Rank: 9Rank: 9

积分
4472
发表于 2022-5-18 14:15:52 | 显示全部楼层
确实不错,顶先
回复 支持 反对

使用道具 举报

1

主题

1348

帖子

4062

积分

4K家园VIP

Rank: 9Rank: 9Rank: 9

积分
4062
发表于 2022-5-18 17:56:05 | 显示全部楼层
LZ敢整点更有创意的不?兄弟们等着围观捏~
回复 支持 反对

使用道具 举报

3

主题

1781

帖子

4891

积分

中级会员

Rank: 4

积分
4891
发表于 2022-5-18 21:05:38 | 显示全部楼层
1v1飘过
回复 支持 反对

使用道具 举报

您需要登录后才可以回帖 登录 | 立即注册

本版积分规则

精彩图文
Archiver|手机版|TAG|Sitemap|新帖|专题|联系我们:邮箱: 4kjia.com@gmail.com   

4k家园   ©2019