他的秘密生活 (简繁中字) (2022) / 第一季全8集/4K高清版本下载

[复制链接]

155

主题

176

帖子

1760

积分

版主

Rank: 7Rank: 7Rank: 7

积分
1760
 楼主| 发表于 2022-5-18 10:52:00 | 显示全部楼层 |阅读模式

p2871504447_副本.jpg

◎译  名 他的秘密生活
◎片  名 Le fate ignoranti
◎年  代 2022
◎产  地 意大利
◎类  别 剧情 / 喜剧 / 爱情 / 同性
◎语  言 意大利语
◎上映日期 2022-04-13(意大利)
◎IMDb评分  7.4/10 from 402 users
◎IMDb链接  https://www.imdb.com/title/tt14350234/
◎豆瓣评分 0/10 from 0 users
◎豆瓣链接 https://movie.douban.com/subject/34929977/
◎集  数 8
◎片  长 50分钟
◎导  演 弗森·欧兹派特 Ferzan Ozpetek
◎编  剧 弗森·欧兹派特 Ferzan Ozpetek
◎演  员 爱德华多·斯卡皮塔 Eduardo Scarpetta

                  Edoardo Purgatori Edoardo Purgatori
                  卢卡·阿金泰罗 Luca Argentero
                  克里斯蒂安娜·卡波通蒂 Cristiana Capotondi
                  伯拉·克海 Burak Deniz
                  费力博·西吉塔诺 Filippo Scicchitano


◎简  介


       这部由R&C制片公司上演的电视剧讲述了安东尼娅的故事。安东尼娅在丈夫死于车祸后,发现自己与一个名叫米歇尔的男人有过同性恋情。这位女士会发现自己与米歇尔和他的怪人圈子建立了意想不到的友谊。
Video
ID : 1
Format : HEVC
Format/Info : High Efficiency Video Coding
Format profile : Main 10@L5@High
HDR format : SMPTE ST 2086, HDR10 compatible
Codec ID : V_MPEGH/ISO/HEVC
Duration : 59 min 2 s
Bit rate : 16.1 Mb/s
Width : 3 840 pixels
Height : 2 160 pixels
Display aspect ratio : 16:9
Frame rate mode : Constant
Frame rate : 25.000 FPS
Color space : YUV
Chroma subsampling : 4:2:0
Bit depth : 10 bits
Bits/(Pixel*Frame) : 0.078
Stream size : 6.66 GiB (98%)
Language : Italian
Default : Yes
Forced : No
Color range : Limited
Color primaries : BT.2020
Transfer characteristics : PQ
Matrix coefficients : BT.2020 non-constant
Mastering display color primaries : BT.2020
Mastering display luminance : min: 0.0001 cd/m2, max: 1000 cd/m2

Audio
ID : 2
Format : E-AC-3
Format/Info : Enhanced AC-3
Commercial name : Dolby Digital Plus
Codec ID : A_EAC3
Duration : 59 min 2 s
Bit rate mode : Constant
Bit rate : 256 kb/s
Channel(s) : 6 channels
Channel layout : L R C LFE Ls Rs
Sampling rate : 48.0 kHz
Frame rate : 31.250 FPS (1536 SPF)
Compression mode : Lossy
Stream size : 108 MiB (2%)
Language : Italian
Service kind : Complete Main
Default : Yes
Forced : No

Text #1
ID : 3
Format : UTF-8
Codec ID : S_TEXT/UTF8
Codec ID/Info : UTF-8 Plain Text
Duration : 56 min 25 s
Bit rate : 67 b/s
Count of elements : 779
Stream size : 27.9 KiB (0%)
Title : English (forced)
Language : English
Default : Yes
Forced : Yes

Text #2
ID : 4
Format : UTF-8
Codec ID : S_TEXT/UTF8
Codec ID/Info : UTF-8 Plain Text
Duration : 58 min 20 s
Bit rate : 46 b/s
Count of elements : 600
Stream size : 19.9 KiB (0%)
Title : Italiano [CC]
Language : Italian
Default : No
Forced : No

Text #3
ID : 5
Format : UTF-8
Codec ID : S_TEXT/UTF8
Codec ID/Info : UTF-8 Plain Text
Duration : 58 min 58 s
Bit rate : 53 b/s
Count of elements : 652
Stream size : 23.0 KiB (0%)
Title : Dansk
Language : Danish
Default : No
Forced : No

Text #4
ID : 6
Format : UTF-8
Codec ID : S_TEXT/UTF8
Codec ID/Info : UTF-8 Plain Text
Duration : 58 min 58 s
Bit rate : 51 b/s
Count of elements : 640
Stream size : 22.1 KiB (0%)
Title : Deutsch
Language : German
Default : No
Forced : No

Text #5
ID : 7
Format : UTF-8
Codec ID : S_TEXT/UTF8
Codec ID/Info : UTF-8 Plain Text
Duration : 58 min 58 s
Bit rate : 85 b/s
Count of elements : 649
Stream size : 37.1 KiB (0%)
Title : Greek
Language : Greek
Default : No
Forced : No

Text #6
ID : 8
Format : UTF-8
Codec ID : S_TEXT/UTF8
Codec ID/Info : UTF-8 Plain Text
Duration : 58 min 58 s
Bit rate : 49 b/s
Count of elements : 629
Stream size : 21.6 KiB (0%)
Title : Español
Language : Spanish
Default : No
Forced : No

Text #7
ID : 9
Format : UTF-8
Codec ID : S_TEXT/UTF8
Codec ID/Info : UTF-8 Plain Text
Duration : 58 min 58 s
Bit rate : 49 b/s
Count of elements : 654
Stream size : 21.3 KiB (0%)
Title : Español (Latinoamericano)
Language : Spanish
Default : No
Forced : No

Text #8
ID : 10
Format : UTF-8
Codec ID : S_TEXT/UTF8
Codec ID/Info : UTF-8 Plain Text
Duration : 58 min 58 s
Bit rate : 51 b/s
Count of elements : 650
Stream size : 22.4 KiB (0%)
Title : Suomi
Language : Finnish
Default : No
Forced : No

Text #9
ID : 11
Format : UTF-8
Codec ID : S_TEXT/UTF8
Codec ID/Info : UTF-8 Plain Text
Duration : 58 min 58 s
Bit rate : 52 b/s
Count of elements : 640
Stream size : 22.9 KiB (0%)
Title : Français
Language : French
Default : No
Forced : No

Text #10
ID : 12
Format : UTF-8
Codec ID : S_TEXT/UTF8
Codec ID/Info : UTF-8 Plain Text
Duration : 58 min 56 s
Bit rate : 47 b/s
Count of elements : 672
Stream size : 20.6 KiB (0%)
Title : Japanese
Language : Japanese
Default : No
Forced : No

Text #11
ID : 13
Format : UTF-8
Codec ID : S_TEXT/UTF8
Codec ID/Info : UTF-8 Plain Text
Duration : 58 min 58 s
Bit rate : 59 b/s
Count of elements : 654
Stream size : 25.5 KiB (0%)
Title : Korean
Language : Korean
Default : No
Forced : No

Text #12
ID : 14
Format : UTF-8
Codec ID : S_TEXT/UTF8
Codec ID/Info : UTF-8 Plain Text
Duration : 58 min 58 s
Bit rate : 46 b/s
Count of elements : 604
Stream size : 20.2 KiB (0%)
Title : Nederlands
Language : Dutch
Default : No
Forced : No

Text #13
ID : 15
Format : UTF-8
Codec ID : S_TEXT/UTF8
Codec ID/Info : UTF-8 Plain Text
Duration : 58 min 58 s
Bit rate : 44 b/s
Count of elements : 531
Stream size : 19.2 KiB (0%)
Title : Norsk
Language : Norwegian
Default : No
Forced : No

Text #14
ID : 16
Format : UTF-8
Codec ID : S_TEXT/UTF8
Codec ID/Info : UTF-8 Plain Text
Duration : 58 min 58 s
Bit rate : 46 b/s
Count of elements : 631
Stream size : 19.9 KiB (0%)
Title : Polski
Language : Polish
Default : No
Forced : No

Text #15
ID : 17
Format : UTF-8
Codec ID : S_TEXT/UTF8
Codec ID/Info : UTF-8 Plain Text
Duration : 58 min 58 s
Bit rate : 52 b/s
Count of elements : 654
Stream size : 22.5 KiB (0%)
Title : Português
Language : Portuguese
Default : No
Forced : No

Text #16
ID : 18
Format : UTF-8
Codec ID : S_TEXT/UTF8
Codec ID/Info : UTF-8 Plain Text
Duration : 58 min 58 s
Bit rate : 48 b/s
Count of elements : 651
Stream size : 20.7 KiB (0%)
Title : Português (Brasil)
Language : Portuguese
Default : No
Forced : No

Text #17
ID : 19
Format : UTF-8
Codec ID : S_TEXT/UTF8
Codec ID/Info : UTF-8 Plain Text
Duration : 58 min 58 s
Bit rate : 48 b/s
Count of elements : 594
Stream size : 21.2 KiB (0%)
Title : Română
Language : Romanian
Default : No
Forced : No

Text #18
ID : 20
Format : UTF-8
Codec ID : S_TEXT/UTF8
Codec ID/Info : UTF-8 Plain Text
Duration : 58 min 58 s
Bit rate : 49 b/s
Count of elements : 627
Stream size : 21.4 KiB (0%)
Title : Svenska
Language : Swedish
Default : No
Forced : No

Text #19
ID : 21
Format : UTF-8
Codec ID : S_TEXT/UTF8
Codec ID/Info : UTF-8 Plain Text
Duration : 58 min 58 s
Bit rate : 37 b/s
Count of elements : 466
Stream size : 16.0 KiB (0%)
Title : Türkçe
Language : Turkish
Default : No
Forced : No

Text #20
ID : 22
Format : UTF-8
Codec ID : S_TEXT/UTF8
Codec ID/Info : UTF-8 Plain Text
Duration : 58 min 58 s
Bit rate : 49 b/s
Count of elements : 654
Stream size : 21.4 KiB (0%)
Title : 中文(繁体)
Language : Chinese
Default : No
Forced : No

Text #21
ID : 23
Format : UTF-8
Codec ID : S_TEXT/UTF8
Codec ID/Info : UTF-8 Plain Text
Duration : 58 min 58 s
Bit rate : 45 b/s
Count of elements : 654
Stream size : 19.7 KiB (0%)
Title : 中文(简体)
Language : 中文
Default : No
Forced : No


下载地址:

游客,如果您要查看本帖隐藏内容请回复

游客,如果您要查看本帖隐藏内容请回复

游客,如果您要查看本帖隐藏内容请回复




.

上一篇:坎迪 / Candy (2022) / 第一季全5集/4K高清版本下载
下一篇:甜蜜家园 / Sweet.Home (2020) / 第一季全10集/4K高清版本下载
回复

使用道具 举报

1

主题

1335

帖子

3827

积分

4K家园VIP

Rank: 9Rank: 9Rank: 9

积分
3827
发表于 2022-5-18 10:52:55 来自手机 | 显示全部楼层
感谢楼主的分享,还是阔以滴
回复 支持 反对

使用道具 举报

0

主题

66

帖子

1663

积分

注册会员

Rank: 2

积分
1663
发表于 2022-5-18 18:19:19 | 显示全部楼层
悠悠的特效字幕都值得收藏,感谢分享
回复 支持 反对

使用道具 举报

53

主题

1241

帖子

3791

积分

4K家园VIP

Rank: 9Rank: 9Rank: 9

积分
3791
发表于 2022-5-21 07:11:38 | 显示全部楼层
路过的帮顶
回复 支持 反对

使用道具 举报

46

主题

1445

帖子

4163

积分

4K家园VIP

Rank: 9Rank: 9Rank: 9

积分
4163
发表于 2022-5-23 04:29:38 | 显示全部楼层
好,很好,非常好!
回复 支持 反对

使用道具 举报

1

主题

1391

帖子

4003

积分

4K家园VIP

Rank: 9Rank: 9Rank: 9

积分
4003
发表于 2022-5-24 10:24:28 | 显示全部楼层
呵呵,低调,低调!
回复 支持 反对

使用道具 举报

2

主题

1344

帖子

3884

积分

4K家园VIP

Rank: 9Rank: 9Rank: 9

积分
3884
发表于 2022-5-26 01:14:53 | 显示全部楼层
一直在看
回复 支持 反对

使用道具 举报

您需要登录后才可以回帖 登录 | 立即注册

本版积分规则

精彩图文
Archiver|手机版|TAG|Sitemap|新帖|专题|联系我们:邮箱: 4kjia.com@gmail.com   

4k家园   ©2019