[4K电影] 前程似锦的女孩 / Promising.Young.Woman (2020) 4k高清版本下载

[复制链接]

2299

主题

2448

帖子

1万

积分

超级版主

Rank: 8Rank: 8

积分
17752
 楼主| 发表于 2022-5-18 21:11:06 | 显示全部楼层 |阅读模式
本帖最后由 最爱4K哟 于 2022-5-18 21:12 编辑

QQ图片20220518211016_副本.png

◎译  名 前程似锦的女孩/有前途的年轻女子/花漾女子(台)
◎片  名 Promising Young Woman
◎年  代 2020
◎产  地 英国,美国
◎类  别 剧情 / 惊悚 / 犯罪
◎语  言 英语
◎上映日期 2020-01-25(圣丹斯电影节) / 2020-12-25(美国)
◎IMDb评分 7.4/10 from 8141 users
◎IMDb链接 https://www.imdb.com/title/tt9620292/
◎豆瓣评分 7.4/10 from 5499 users
◎豆瓣链接 https://movie.douban.com/subject/30450313/
◎片  长 113分钟
◎导  演 埃默拉尔德·芬内尔 Emerald Fennell
◎编  剧 埃默拉尔德·芬内尔 Emerald Fennell
◎主  演 凯瑞·穆里根 Carey Mulligan
      博·伯翰 Bo Burnham
      爱丽森·布里 Alison Brie
      拉弗恩·考克斯 Laverne Cox
      克兰西·布朗 Clancy Brown
      詹妮佛·库里奇 Jennifer Coolidge
      克里斯托夫·梅兹-普莱瑟 Christopher Mintz-Plasse
      莫莉·香侬 Molly Shannon
      斯利姆·克什里 Slim Khezri
      山姆·理查森 Sam Richardson
      斯蒂夫·蒙罗埃 Steve Monroe
      亚当·布罗迪 Adam Brody
      康妮·布里登 Connie Britton
      阿尔弗雷德·莫里纳 Alfred Molina
      马克思·格林菲尔德 Max Greenfield
      克里斯·劳威尔 Chris Lowell
      詹妮尔·麦基 Jenelle McKee
      雷·尼科尔森 Ray Nicholson
      斯嘉丽·斯宾塞 Scarlet Spencer
      艾莉·哈特 Alli Hart
      弗朗西斯卡·埃斯特韦斯 Francisca Estevez
      Timothy E. Goodwin
      安吉拉·周 Angela Zhou
      布莱恩·利利斯 Bryan Lillis
      Gabriel Oliva
      Loren Paul
      David Reed
      比比·博克斯 Abi Beaux



◎简  介

  每个人都说凯茜(凯瑞·穆里根 饰)是个很有前途的年轻女子,直到一场神秘事件突然发生使她的未来脱轨。但是在凯茜的生活中,一切看起来并非如此:她邪恶而又聪明,诱人但又狡猾,还在夜间过着秘密的双重生活。现在,意外的遭遇将使凯茜有机会纠正过去的错误。

◎获奖情况

  第41届伦敦影评人协会奖 ?(2021)
  年度电影(提名)
  年度女主角(提名) 凯瑞·穆里根
  年度英国/爱尔兰女演员(提名) 凯瑞·穆里根
  年度突破英国/爱尔兰电影人(提名) 埃默拉尔德·芬内尔

  第46届洛杉矶影评人协会奖 ?(2020)
  最佳女主角 凯瑞·穆里根
  最佳剧本 埃默拉尔德·芬内尔

  第33届芝加哥影评人协会奖 ?(2020)
  最佳影片(提名)
  最佳导演(提名) 埃默拉尔德·芬内尔
  最佳女主角(提名) 凯瑞·穆里根
  最佳原创剧本(提名) 埃默拉尔德·芬内尔
  最具突破导演(米洛斯·斯泰利克奖) 埃默拉尔德·芬内尔

Video
ID : 1
Format : HEVC
Format/Info : High Efficiency Video Coding
Format profile : Main 10@L5@High
HDR format : Dolby Vision, Version 1.0, dvhe.05.06, BL+RPU
Codec ID : V_MPEGH/ISO/HEVC
Duration : 1 h 53 min
Bit rate : 24.5 Mb/s
Width : 3 840 pixels
Height : 2 160 pixels
Display aspect ratio : 16:9
Frame rate mode : Constant
Frame rate : 23.976 (24000/1001) FPS
Color space : YUV
Chroma subsampling : 4:2:0 (Type 0)
Bit depth : 10 bits
Bits/(Pixel*Frame) : 0.123
Stream size : 19.5 GiB (81%)
Language : English
Default : Yes
Forced : No
Color range : Full

Audio #1
ID : 2
ID in the original source medium : 4352 (0x1100)
Format : DTS XLL
Format/Info : Digital Theater Systems
Commercial name : DTS-HD Master Audio
Codec ID : A_DTS
Duration : 1 h 53 min
Bit rate mode : Variable
Bit rate : 4 892 kb/s
Channel(s) : 8 channels
Channel layout : C L R LFE Lb Rb Lss Rss
Sampling rate : 48.0 kHz
Frame rate : 93.750 FPS (512 SPF)
Bit depth : 24 bits
Compression mode : Lossless
Delay relative to video : 26 s 210 ms
Stream size : 3.88 GiB (16%)
Title : DTS-HD MA 7.1
Language : English
Default : Yes
Forced : No
Original source medium : Blu-ray

Audio #2
ID : 3
Format : E-AC-3 JOC
Format/Info : Enhanced AC-3 with Joint Object Coding
Commercial name : Dolby Digital Plus with Dolby Atmos
Codec ID : A_EAC3
Duration : 1 h 53 min
Bit rate mode : Constant
Bit rate : 768 kb/s
Channel(s) : 6 channels
Channel layout : L R C LFE Ls Rs
Sampling rate : 48.0 kHz
Frame rate : 31.250 FPS (1536 SPF)
Compression mode : Lossy
Stream size : 626 MiB (3%)
Title : DDP 5.1 Atmos
Language : English
Service kind : Complete Main
Default : No
Forced : No
Complexity index : 16
Number of dynamic objects : 15
Bed channel count : 1 channel
Bed channel configuration : LFE

Text #1
ID : 4
Format : UTF-8
Codec ID : S_TEXT/UTF8
Codec ID/Info : UTF-8 Plain Text
Duration : 1 h 53 min
Bit rate : 69 b/s
Count of elements : 2138
Stream size : 57.4 KiB (0%)
Language : English
Default : Yes
Forced : No

Text #2
ID : 5
Format : UTF-8
Codec ID : S_TEXT/UTF8
Codec ID/Info : UTF-8 Plain Text
Duration : 1 h 53 min
Bit rate : 77 b/s
Count of elements : 2331
Stream size : 64.4 KiB (0%)
Title : SDH
Language : English
Default : No
Forced : No

Text #3
ID : 6
Format : UTF-8
Codec ID : S_TEXT/UTF8
Codec ID/Info : UTF-8 Plain Text
Duration : 1 h 46 min
Bit rate : 89 b/s
Count of elements : 1459
Stream size : 70.1 KiB (0%)
Language : Arabic
Default : No
Forced : No

Text #4
ID : 7
Format : UTF-8
Codec ID : S_TEXT/UTF8
Codec ID/Info : UTF-8 Plain Text
Duration : 1 h 46 min
Bit rate : 66 b/s
Count of elements : 1588
Stream size : 52.1 KiB (0%)
Title : Canadian
Language : French
Default : No
Forced : No

Text #5
ID : 8
Format : UTF-8
Codec ID : S_TEXT/UTF8
Codec ID/Info : UTF-8 Plain Text
Duration : 1 h 46 min
Bit rate : 64 b/s
Count of elements : 1812
Stream size : 50.5 KiB (0%)
Title : Latin American
Language : Spanish
Default : No
Forced : No

Text #6
ID : 9
ID in the original source medium : 4608 (0x1200)
Format : PGS
Muxing mode : zlib
Codec ID : S_HDMV/PGS
Codec ID/Info : Picture based subtitle format used on BDs/HD-DVDs
Duration : 1 h 48 min
Bit rate : 51.2 kb/s
Count of elements : 3748
Stream size : 39.7 MiB (0%)
Title : English-PGS
Language : English
Default : No
Forced : No
Original source medium : Blu-ray

Text #7
ID : 10
ID in the original source medium : 4609 (0x1201)
Format : PGS
Muxing mode : zlib
Codec ID : S_HDMV/PGS
Codec ID/Info : Picture based subtitle format used on BDs/HD-DVDs
Duration : 1 h 52 min
Bit rate : 42.0 kb/s
Count of elements : 3626
Stream size : 33.8 MiB (0%)
Title : Spanish-PGS
Language : Spanish
Default : No
Forced : No
Original source medium : Blu-ray

Text #8
ID : 11
ID in the original source medium : 4610 (0x1202)
Format : PGS
Muxing mode : zlib
Codec ID : S_HDMV/PGS
Codec ID/Info : Picture based subtitle format used on BDs/HD-DVDs
Duration : 1 h 52 min
Bit rate : 41.4 kb/s
Count of elements : 3180
Stream size : 33.3 MiB (0%)
Title : French-PGS
Language : French
Default : No
Forced : No
Original source medium : Blu-ray

Menu
00:00:00.000 : en:Chapter 1
00:09:12.000 : en:Chapter 2
00:13:57.000 : en:Chapter 3
00:20:28.000 : en:Chapter 4
00:25:46.000 : en:Chapter 5
00:34:46.000 : en:Chapter 6
00:40:16.000 : en:Chapter 7
00:43:00.000 : en:Chapter 8
00:49:22.000 : en:Chapter 9
00:54:52.000 : en:Chapter 10
00:59:25.000 : en:Chapter 11
01:04:34.000 : en:Chapter 12
01:08:09.000 : en:Chapter 13
01:12:31.000 : en:Chapter 14
01:18:35.000 : en:Chapter 15
01:22:05.000 : en:Chapter 16
01:26:09.000 : en:Chapter 17
01:36:14.000 : en:Chapter 18
01:43:43.000 : en:Chapter 19
01:48:01.000 : en:Chapter 20

资源速度为零或资源敏感被和谐时,推荐使用qBittorrent等下载软件,有条件的推荐115更好的下载软件!

下载地址:


游客,如果您要查看本帖隐藏内容请回复

游客,如果您要查看本帖隐藏内容请回复

游客,如果您要查看本帖隐藏内容请回复

游客,如果您要查看本帖隐藏内容请回复


相关4K版本下载地址:

前程似锦的女孩 / Happy Death Day (2017)4K高清下载/13.02GB
[4K首发资源]《前程似锦的女孩/花漾女子》4K高清下载/12.31GB











上一篇:窈窕奶爸(简繁中字)/ Mrs. Doubtfire (1993) 4k高清版本下载
下一篇:塞尔玛 / Selma (2014) 4K高清下载
回复

使用道具 举报

1

主题

1398

帖子

4024

积分

4K家园VIP

Rank: 9Rank: 9Rank: 9

积分
4024
发表于 2022-5-18 21:11:10 | 显示全部楼层
高手啊
回复 支持 反对

使用道具 举报

0

主题

3

帖子

16

积分

新手上路

Rank: 1

积分
16
发表于 2022-5-19 08:56:37 | 显示全部楼层
sssssssssssssss
回复 支持 反对

使用道具 举报

51

主题

1526

帖子

4398

积分

4K家园VIP

Rank: 9Rank: 9Rank: 9

积分
4398
发表于 2022-5-19 18:26:44 | 显示全部楼层
4K版的应该更清晰吧
回复 支持 反对

使用道具 举报

0

主题

1

帖子

6

积分

新手上路

Rank: 1

积分
6
发表于 2022-5-19 21:06:13 | 显示全部楼层

naked girl ass

naked girl ass
回复 支持 反对

使用道具 举报

1

主题

1278

帖子

3852

积分

4K家园VIP

Rank: 9Rank: 9Rank: 9

积分
3852
发表于 2022-5-20 20:43:17 | 显示全部楼层
学习下
回复 支持 反对

使用道具 举报

2

主题

1358

帖子

4094

积分

4K家园VIP

Rank: 9Rank: 9Rank: 9

积分
4094
发表于 2022-5-24 01:03:04 | 显示全部楼层
秀起来~
回复 支持 反对

使用道具 举报

42

主题

1530

帖子

4402

积分

4K家园VIP

Rank: 9Rank: 9Rank: 9

积分
4402
发表于 2022-5-24 15:05:18 来自手机 | 显示全部楼层
没看懂
回复 支持 反对

使用道具 举报

您需要登录后才可以回帖 登录 | 立即注册

本版积分规则

精彩图文
Archiver|手机版|TAG|Sitemap|新帖|专题|联系我们:邮箱: 4kjia.com@gmail.com   

4k家园   ©2019