[4K电影] 亚当计划(简繁中字)/ The Adam Project (2022) 4K高清版本下载

[复制链接]

1868

主题

2007

帖子

1万

积分

超级版主

Rank: 8Rank: 8

积分
15027
 楼主| 发表于 2022-5-18 21:42:41 | 显示全部楼层 |阅读模式

QQ图片20220518214014_副本.png

◎译  名 亚当计划/超时空亚当计划(港)/超时空亚当计画(台)/Our Name Is Adam
◎片  名 The Adam Project
◎年  代 2022
◎产  地 美国
◎类  别 喜剧/动作/科幻
◎语  言 英语
◎上映日期 2022-03-11(美国网络)
◎IMDb评分  6.7/10 from 160347 users
◎IMDb链接  https://www.imdb.com/title/tt2463208/
◎豆瓣评分 6.3/10 from 30567 users
◎豆瓣链接 https://movie.douban.com/subject/34970181/
◎导  演 肖恩·利维 Shawn Levy
◎编  剧 乔纳森·崔普尔 Jonathan Tropper / T·S·诺林 T.S. Nowlin / 珍妮佛·弗莱基特 Jennifer Flackett / 马克·莱温 Mark Levin
◎主  演 瑞安·雷诺兹 Ryan Reynolds
       马克·鲁弗洛 Mark Ruffalo
       詹妮弗·加纳 Jennifer Garner
       沃克·斯科贝尔 Walker Scobell
       佐伊·索尔达娜 Zoe Saldana
       凯瑟琳·基纳 Catherine Keener
       埃莉·哈维 Ellie Harvie
       露西·格斯特 Lucie Guest
       梅拉尼·休伯特 Mellanie Hubert
       小亚历克斯·马里亚里 Alex Mallari Jr.
       本·威尔金森 Ben Wilkinson
       布拉克斯顿·比肯 Braxton Bjerken
       Esther Li Esther Li
       杰西卡·博德纳雷克 Jessica Bodenarek
       米洛·山德尔 Milo Shandel
       卡斯拉·王 Kasra Wong

◎简  介

   2022年意外坠机着陆后,穿越时空的战斗机飞行员亚当·里德(AdamReed)与12岁的自己组成了一支团队,执行拯救未来的任务。

Video
ID : 1
Format : HEVC
Format/Info : High Efficiency Video Coding
Format profile : Main 10@L5@Main
HDR format : SMPTE ST 2086, HDR10 compatible
Codec ID : V_MPEGH/ISO/HEVC
Duration : 1 h 44 min
Bit rate : 15.1 Mb/s
Width : 3 840 pixels
Height : 2 160 pixels
Display aspect ratio : 16:9
Frame rate mode : Constant
Frame rate : 24.000 FPS
Color space : YUV
Chroma subsampling : 4:2:0 (Type 2)
Bit depth : 10 bits
Bits/(Pixel*Frame) : 0.076
Stream size : 11.0 GiB (95%)
Default : Yes
Forced : No
Color range : Limited
Color primaries : BT.2020
Transfer characteristics : PQ
Matrix coefficients : BT.2020 non-constant
Mastering display color primaries : Display P3
Mastering display luminance : min: 0.0001 cd/m2, max: 1000 cd/m2
Maximum Content Light Level : 1634 cd/m2
Maximum Frame-Average Light Level : 109 cd/m2

Audio
ID : 2
Format : E-AC-3 JOC
Format/Info : Enhanced AC-3 with Joint Object Coding
Commercial name : Dolby Digital Plus with Dolby Atmos
Codec ID : A_EAC3
Duration : 1 h 46 min
Bit rate mode : Constant
Bit rate : 768 kb/s
Channel(s) : 6 channels
Channel layout : L R C LFE Ls Rs
Sampling rate : 48.0 kHz
Frame rate : 31.250 FPS (1536 SPF)
Compression mode : Lossy
Stream size : 586 MiB (5%)
Title : DDP Atmos 5.1
Language : English
Service kind : Complete Main
Default : Yes
Forced : No
Complexity index : 16
Number of dynamic objects : 15
Bed channel count : 1 channel
Bed channel configuration : LFE

Text #1
ID : 3
Format : UTF-8
Codec ID : S_TEXT/UTF8
Codec ID/Info : UTF-8 Plain Text
Duration : 1 h 42 min
Bit rate : 106 b/s
Count of elements : 1818
Stream size : 79.7 KiB (0%)
Title : English (SDH)
Language : English
Default : No
Forced : No

Text #2
ID : 4
Format : UTF-8
Codec ID : S_TEXT/UTF8
Codec ID/Info : UTF-8 Plain Text
Duration : 1 h 43 min
Bit rate : 113 b/s
Count of elements : 1512
Stream size : 85.7 KiB (0%)
Title : Arabic
Language : Arabic
Default : No
Forced : No

Text #3
ID : 5
Format : UTF-8
Codec ID : S_TEXT/UTF8
Codec ID/Info : UTF-8 Plain Text
Duration : 1 h 43 min
Bit rate : 58 b/s
Count of elements : 1455
Stream size : 43.9 KiB (0%)
Title : Czech
Language : Czech
Default : No
Forced : No

Text #4
ID : 6
Format : UTF-8
Codec ID : S_TEXT/UTF8
Codec ID/Info : UTF-8 Plain Text
Duration : 1 h 43 min
Bit rate : 57 b/s
Count of elements : 1359
Stream size : 43.2 KiB (0%)
Title : Danish
Language : Danish
Default : No
Forced : No

Text #5
ID : 7
Format : UTF-8
Codec ID : S_TEXT/UTF8
Codec ID/Info : UTF-8 Plain Text
Duration : 1 h 43 min
Bit rate : 59 b/s
Count of elements : 1444
Stream size : 45.4 KiB (0%)
Title : German
Language : German
Default : No
Forced : No

Text #6
ID : 8
Format : UTF-8
Codec ID : S_TEXT/UTF8
Codec ID/Info : UTF-8 Plain Text
Duration : 1 h 43 min
Bit rate : 98 b/s
Count of elements : 1544
Stream size : 74.8 KiB (0%)
Title : Greek
Language : Greek
Default : No
Forced : No

Text #7
ID : 9
Format : UTF-8
Codec ID : S_TEXT/UTF8
Codec ID/Info : UTF-8 Plain Text
Duration : 1 h 43 min
Bit rate : 56 b/s
Count of elements : 1483
Stream size : 42.8 KiB (0%)
Title : Spanish (Castilian)
Language : Spanish
Default : No
Forced : No

Text #8
ID : 10
Format : UTF-8
Codec ID : S_TEXT/UTF8
Codec ID/Info : UTF-8 Plain Text
Duration : 1 h 43 min
Bit rate : 57 b/s
Count of elements : 1493
Stream size : 43.6 KiB (0%)
Title : Spanish (Latin American)
Language : Spanish
Default : No
Forced : No

Text #9
ID : 11
Format : UTF-8
Codec ID : S_TEXT/UTF8
Codec ID/Info : UTF-8 Plain Text
Duration : 1 h 43 min
Bit rate : 51 b/s
Count of elements : 1051
Stream size : 39.1 KiB (0%)
Title : Finnish
Language : Finnish
Default : No
Forced : No

Text #10
ID : 12
Format : UTF-8
Codec ID : S_TEXT/UTF8
Codec ID/Info : UTF-8 Plain Text
Duration : 1 h 43 min
Bit rate : 56 b/s
Count of elements : 1542
Stream size : 42.9 KiB (0%)
Title : French (Parisian)
Language : French
Default : No
Forced : No

Text #11
ID : 13
Format : UTF-8
Codec ID : S_TEXT/UTF8
Codec ID/Info : UTF-8 Plain Text
Duration : 1 h 36 min
Bit rate : 106 b/s
Count of elements : 1414
Stream size : 75.2 KiB (0%)
Title : Hebrew
Language : Hebrew
Default : No
Forced : No

Text #12
ID : 14
Format : UTF-8
Codec ID : S_TEXT/UTF8
Codec ID/Info : UTF-8 Plain Text
Duration : 1 h 43 min
Bit rate : 59 b/s
Count of elements : 1435
Stream size : 44.9 KiB (0%)
Title : Hungarian
Language : Hungarian
Default : No
Forced : No

Text #13
ID : 15
Format : UTF-8
Codec ID : S_TEXT/UTF8
Codec ID/Info : UTF-8 Plain Text
Duration : 1 h 43 min
Bit rate : 53 b/s
Count of elements : 1476
Stream size : 40.8 KiB (0%)
Title : Croatian
Language : Croatian
Default : No
Forced : No

Text #14
ID : 16
Format : UTF-8
Codec ID : S_TEXT/UTF8
Codec ID/Info : UTF-8 Plain Text
Duration : 1 h 43 min
Bit rate : 58 b/s
Count of elements : 1486
Stream size : 44.1 KiB (0%)
Title : Indonesian
Language : Indonesian
Default : No
Forced : No

Text #15
ID : 17
Format : UTF-8
Codec ID : S_TEXT/UTF8
Codec ID/Info : UTF-8 Plain Text
Duration : 1 h 43 min
Bit rate : 59 b/s
Count of elements : 1391
Stream size : 44.8 KiB (0%)
Title : Italian
Language : Italian
Default : No
Forced : No

Text #16
ID : 18
Format : UTF-8
Codec ID : S_TEXT/UTF8
Codec ID/Info : UTF-8 Plain Text
Duration : 1 h 43 min
Bit rate : 54 b/s
Count of elements : 1444
Stream size : 41.5 KiB (0%)
Title : Japanese
Language : Japanese
Default : No
Forced : No

Text #17
ID : 19
Format : UTF-8
Codec ID : S_TEXT/UTF8
Codec ID/Info : UTF-8 Plain Text
Duration : 1 h 43 min
Bit rate : 77 b/s
Count of elements : 1512
Stream size : 58.3 KiB (0%)
Title : Korean
Language : Korean
Default : No
Forced : No

Text #18
ID : 20
Format : UTF-8
Codec ID : S_TEXT/UTF8
Codec ID/Info : UTF-8 Plain Text
Duration : 1 h 43 min
Bit rate : 59 b/s
Count of elements : 1458
Stream size : 45.4 KiB (0%)
Title : Malay
Language : Malay
Default : No
Forced : No

Text #19
ID : 21
Format : UTF-8
Codec ID : S_TEXT/UTF8
Codec ID/Info : UTF-8 Plain Text
Duration : 1 h 43 min
Bit rate : 59 b/s
Count of elements : 1172
Stream size : 45.1 KiB (0%)
Title : Norwegian (Bokmål)
Language : Norwegian Bokmal
Default : No
Forced : No

Text #20
ID : 22
Format : UTF-8
Codec ID : S_TEXT/UTF8
Codec ID/Info : UTF-8 Plain Text
Duration : 1 h 43 min
Bit rate : 56 b/s
Count of elements : 1269
Stream size : 42.5 KiB (0%)
Title : Dutch
Language : Dutch
Default : No
Forced : No

Text #21
ID : 23
Format : UTF-8
Codec ID : S_TEXT/UTF8
Codec ID/Info : UTF-8 Plain Text
Duration : 1 h 43 min
Bit rate : 59 b/s
Count of elements : 1422
Stream size : 44.9 KiB (0%)
Title : Polish
Language : Polish
Default : No
Forced : No

Text #22
ID : 24
Format : UTF-8
Codec ID : S_TEXT/UTF8
Codec ID/Info : UTF-8 Plain Text
Duration : 1 h 36 min
Bit rate : 65 b/s
Count of elements : 1453
Stream size : 46.2 KiB (0%)
Title : Portuguese (Brazilian)
Language : Portuguese
Default : No
Forced : No

Text #23
ID : 25
Format : UTF-8
Codec ID : S_TEXT/UTF8
Codec ID/Info : UTF-8 Plain Text
Duration : 1 h 43 min
Bit rate : 60 b/s
Count of elements : 1472
Stream size : 46.1 KiB (0%)
Title : Portuguese (Iberian)
Language : Portuguese
Default : No
Forced : No

Text #24
ID : 26
Format : UTF-8
Codec ID : S_TEXT/UTF8
Codec ID/Info : UTF-8 Plain Text
Duration : 1 h 43 min
Bit rate : 66 b/s
Count of elements : 1476
Stream size : 50.4 KiB (0%)
Title : Romanian
Language : Romanian
Default : No
Forced : No

Text #25
ID : 27
Format : UTF-8
Codec ID : S_TEXT/UTF8
Codec ID/Info : UTF-8 Plain Text
Duration : 1 h 43 min
Bit rate : 96 b/s
Count of elements : 1451
Stream size : 73.1 KiB (0%)
Title : Russian
Language : Russian
Default : No
Forced : No

Text #26
ID : 28
Format : UTF-8
Codec ID : S_TEXT/UTF8
Codec ID/Info : UTF-8 Plain Text
Duration : 1 h 43 min
Bit rate : 59 b/s
Count of elements : 1256
Stream size : 45.4 KiB (0%)
Title : Swedish
Language : Swedish
Default : No
Forced : No

Text #27
ID : 29
Format : UTF-8
Codec ID : S_TEXT/UTF8
Codec ID/Info : UTF-8 Plain Text
Duration : 1 h 43 min
Bit rate : 152 b/s
Count of elements : 1509
Stream size : 115 KiB (0%)
Title : Thai
Language : Thai
Default : No
Forced : No

Text #28
ID : 30
Format : UTF-8
Codec ID : S_TEXT/UTF8
Codec ID/Info : UTF-8 Plain Text
Duration : 1 h 43 min
Bit rate : 62 b/s
Count of elements : 1366
Stream size : 47.5 KiB (0%)
Title : Turkish
Language : Turkish
Default : No
Forced : No

Text #29
ID : 31
Format : UTF-8
Codec ID : S_TEXT/UTF8
Codec ID/Info : UTF-8 Plain Text
Duration : 1 h 43 min
Bit rate : 94 b/s
Count of elements : 1462
Stream size : 71.6 KiB (0%)
Title : Ukrainian
Language : Ukrainian
Default : No
Forced : No

Text #30
ID : 32
Format : UTF-8
Codec ID : S_TEXT/UTF8
Codec ID/Info : UTF-8 Plain Text
Duration : 1 h 43 min
Bit rate : 66 b/s
Count of elements : 1496
Stream size : 50.2 KiB (0%)
Title : 中文(简体)
Language : 中文
Default : No
Forced : No

Text #31
ID : 33
Format : UTF-8
Codec ID : S_TEXT/UTF8
Codec ID/Info : UTF-8 Plain Text
Duration : 1 h 43 min
Bit rate : 61 b/s
Count of elements : 1607
Stream size : 46.4 KiB (0%)
Title : 中文(繁体)
Language : 中文
Default : No
Forced : No


Text #32
ID : 34
Format : UTF-8
Codec ID : S_TEXT/UTF8
Codec ID/Info : UTF-8 Plain Text
Duration : 1 h 43 min
Bit rate : 82 b/s
Count of elements : 1390
Stream size : 62.1 KiB (0%)
Title : Vietnamese
Language : Vietnamese
Default : No
Forced : No

Menu
01:38:36.000 : en:End Credits


资源速度为零或资源敏感被和谐时,推荐使用qBittorrent等下载软件,有条件的推荐115更好的下载软件!

下载地址:


游客,如果您要查看本帖隐藏内容请回复






上一篇:塞尔玛 / Selma (2014) 4K高清下载
下一篇:记忆 / Memory (2022) 4K高清版本下载
回复

使用道具 举报

48

主题

1597

帖子

4607

积分

4K家园VIP

Rank: 9Rank: 9Rank: 9

积分
4607
发表于 2022-5-18 21:42:45 | 显示全部楼层
感谢分享
回复 支持 反对

使用道具 举报

0

主题

3

帖子

16

积分

新手上路

Rank: 1

积分
16
发表于 2022-5-18 22:48:21 | 显示全部楼层
gang感谢楼主分享
回复 支持 反对

使用道具 举报

2

主题

243

帖子

3137

积分

中级会员

Rank: 4

积分
3137
发表于 2022-5-19 08:00:35 | 显示全部楼层
感谢楼主分享            
回复 支持 反对

使用道具 举报

0

主题

47

帖子

3232

积分

中级会员

Rank: 4

积分
3232
发表于 2022-5-19 08:05:36 | 显示全部楼层
感谢分享
回复

使用道具 举报

0

主题

120

帖子

5912

积分

高级会员

Rank: 3Rank: 3

积分
5912
发表于 2022-5-19 08:18:19 | 显示全部楼层
感谢楼主分享
回复 支持 反对

使用道具 举报

0

主题

15

帖子

106

积分

新手上路

Rank: 1

积分
106
发表于 2022-5-19 08:32:20 | 显示全部楼层
感谢分享
回复

使用道具 举报

0

主题

2

帖子

13

积分

新手上路

Rank: 1

积分
13
发表于 2022-5-19 08:55:14 | 显示全部楼层
谢谢分享
回复

使用道具 举报

0

主题

1

帖子

10

积分

新手上路

Rank: 1

积分
10
发表于 2022-5-19 10:29:52 | 显示全部楼层
好好好
回复

使用道具 举报

1

主题

6

帖子

223

积分

新手上路

Rank: 1

积分
223
发表于 2022-5-19 20:15:20 | 显示全部楼层
终于等到了,谢谢楼主分享
回复 支持 反对

使用道具 举报

您需要登录后才可以回帖 登录 | 立即注册

本版积分规则

精彩图文
Archiver|手机版|TAG|Sitemap|新帖|专题|联系我们:邮箱: 4kjia.com@gmail.com   

4k家园   ©2019