幻灭 / Disenchantment (2018) / 第一季10集全 / 4K高清版本下载

[复制链接]

155

主题

176

帖子

1760

积分

版主

Rank: 7Rank: 7Rank: 7

积分
1760
 楼主| 发表于 2022-5-20 10:17:19 | 显示全部楼层 |阅读模式

p2528166833_副本.jpg

◎译  名 幻灭 第一季/崩坏梦王国(台)/祛魅
◎片  名 Disenchantment Season 1
◎年  代 2018
◎产  地 美国
◎类  别 动画
◎语  言 英语
◎上映日期 2018-08-17(美国)
◎IMDb评分  7.2/10 from 58701 users
◎IMDb链接  http://www.imdb.com/title/tt5363918/
◎豆瓣评分 8.4/10 from 8240 users
◎豆瓣链接 https://movie.douban.com/subject/27008112/

◎集  数 10
◎片  长 30分钟
◎主  演 艾比·雅各布森 Abbi Jacobson
      奈特·法松 Nat Faxon
      埃里克·安德烈 Eric André
      约翰·迪·玛吉欧 John Di Maggio
      比利·维斯特 Billy West
      莫里斯·拉马奇 Maurice LaMarche
      特蕾丝·麦克尼尔 Tress MacNeille
      大卫·赫尔曼 David Herman
      马特·贝里 Matt Berry
      Jeny Batten
      瑞奇·富尔切尔 Rich Fulcher
      诺尔·费丁 Noel Fielding
      露西·蒙格马利 Lucy Montgomery


◎简  介

  马特·格罗宁(《辛普森一家》)打造的Netflix新动画剧集《祛魅》(Disenchantment)曝光设定图,公主、精灵和恶魔亮相。该剧共2季,每季10集。设定在Dreamland里衰落的中世纪王国,讲述酗酒的年轻公主Bean、她精力充沛、顽强独立的精灵伙伴Elfo和她个人的心魔Luci的不幸遭遇,在这过程中,他们会遇见食人魔、精灵、哈比、小恶魔、巨魔、海象和很多愚蠢的人类。
  配音卡司有艾比·雅各布森、奈特·法松、埃里克·安德烈、马特·贝里、约翰·迪·玛吉欧、比利·维斯特等,未定播出日期。

Video
ID : 1
Format : HEVC
Format/Info : High Efficiency Video Coding
Format profile : Main 10@L5@Main
Codec ID : V_MPEGH/ISO/HEVC
Duration : 36 min 34 s
Bit rate : 10.1 Mb/s
Width : 3 840 pixels
Height : 2 160 pixels
Display aspect ratio : 16:9
Frame rate mode : Constant
Frame rate : 23.976 (24000/1001) FPS
Color space : YUV
Chroma subsampling : 4:2:0
Bit depth : 10 bits
Bits/(Pixel*Frame) : 0.051
Stream size : 2.58 GiB (94%)
Default : Yes
Forced : No
Color range : Limited
Color primaries : BT.709
Transfer characteristics : BT.709
Matrix coefficients : BT.709

Audio
ID : 2
Format : E-AC-3
Format/Info : Enhanced AC-3
Commercial name : Dolby Digital Plus
Codec ID : A_EAC3
Duration : 36 min 34 s
Bit rate mode : Constant
Bit rate : 640 kb/s
Channel(s) : 6 channels
Channel layout : L R C LFE Ls Rs
Sampling rate : 48.0 kHz
Frame rate : 31.250 FPS (1536 SPF)
Compression mode : Lossy
Stream size : 167 MiB (6%)
Language : English
Service kind : Complete Main
Default : Yes
Forced : No

Text #1
ID : 3
Format : UTF-8
Codec ID : S_TEXT/UTF8
Codec ID/Info : UTF-8 Plain Text
Duration : 34 min 2 s
Bit rate : 69 b/s
Count of elements : 546
Stream size : 17.4 KiB (0%)
Title : SDH
Language : English
Default : No
Forced : No

Text #2
ID : 4
Format : UTF-8
Codec ID : S_TEXT/UTF8
Codec ID/Info : UTF-8 Plain Text
Duration : 35 min 0 s
Bit rate : 60 b/s
Count of elements : 417
Stream size : 15.6 KiB (0%)
Language : German
Default : No
Forced : No

Text #3
ID : 5
Format : UTF-8
Codec ID : S_TEXT/UTF8
Codec ID/Info : UTF-8 Plain Text
Duration : 35 min 0 s
Bit rate : 58 b/s
Count of elements : 412
Stream size : 15.1 KiB (0%)
Language : French
Default : No
Forced : No

Text #4
ID : 6
Format : UTF-8
Codec ID : S_TEXT/UTF8
Codec ID/Info : UTF-8 Plain Text
Duration : 35 min 0 s
Bit rate : 95 b/s
Count of elements : 418
Stream size : 24.5 KiB (0%)
Language : Russian
Default : No
Forced : No

Text #5
ID : 7
Format : UTF-8
Codec ID : S_TEXT/UTF8
Codec ID/Info : UTF-8 Plain Text
Duration : 35 min 0 s
Bit rate : 59 b/s
Count of elements : 412
Stream size : 15.3 KiB (0%)
Language : Turkish
Default : No
Forced : No

Text #6
ID : 8
Format : UTF-8
Codec ID : S_TEXT/UTF8
Codec ID/Info : UTF-8 Plain Text
Duration : 35 min 0 s
Bit rate : 98 b/s
Count of elements : 418
Stream size : 25.4 KiB (0%)
Language : Ukrainian
Default : No
Forced : No

Menu
00:00:00.000 : enart 01
00:34:08.450 : en:Credits
下载地址:

游客,如果您要查看本帖隐藏内容请回复







上一篇:全裸导演(简繁中字)(2019)/第一季全8集/4K高清版本下载
下一篇:帕姆与汤米(简繁中字)(2022)/ 第一季8集全 / 4K高清版本下载
回复

使用道具 举报

2

主题

1678

帖子

4652

积分

4K家园VIP

Rank: 9Rank: 9Rank: 9

积分
4652
发表于 2022-5-20 10:17:32 | 显示全部楼层
看着好像不错
回复 支持 反对

使用道具 举报

56

主题

1549

帖子

4531

积分

4K家园VIP

Rank: 9Rank: 9Rank: 9

积分
4531
发表于 2022-5-20 10:17:32 | 显示全部楼层
不错 支持下
回复 支持 反对

使用道具 举报

2

主题

1191

帖子

3591

积分

4K家园VIP

Rank: 9Rank: 9Rank: 9

积分
3591
发表于 2022-5-20 11:12:53 | 显示全部楼层
差评
回复 支持 反对

使用道具 举报

3

主题

1610

帖子

4426

积分

4K家园VIP

Rank: 9Rank: 9Rank: 9

积分
4426
发表于 2022-5-20 11:25:13 | 显示全部楼层
正好需要啊
回复 支持 反对

使用道具 举报

6

主题

1649

帖子

4535

积分

中级会员

Rank: 4

积分
4535
发表于 2022-5-20 15:19:33 来自手机 | 显示全部楼层
高手啊
回复 支持 反对

使用道具 举报

0

主题

5

帖子

24

积分

新手上路

Rank: 1

积分
24
发表于 2022-5-21 16:56:23 | 显示全部楼层
看看
回复

使用道具 举报

您需要登录后才可以回帖 登录 | 立即注册

本版积分规则

精彩图文
Archiver|手机版|TAG|Sitemap|新帖|专题|联系我们:邮箱: 4kjia.com@gmail.com   

4k家园   ©2019