帕姆与汤米(简繁中字)(2022)/ 第一季8集全 / 4K高清版本下载

[复制链接]

154

主题

175

帖子

1746

积分

版主

Rank: 7Rank: 7Rank: 7

积分
1746
 楼主| 发表于 2022-5-20 10:52:41 | 显示全部楼层 |阅读模式
p2827729483_副本.jpg

◎译  名 帕姆与汤米 / 帕米拉与汤米 / 潘与汤米(台)
◎片  名 Pam & Tommy
◎年  代 2022
◎产  地 美国
◎类  别 剧情 / 爱情 / 传记
◎语  言 英语
◎上映日期 2022-02-02(美国)
◎IMDb评分  7.3/10 from 27209
◎IMDb链接  https://www.imdb.com/title/tt13659418/
◎豆瓣评分 7.2/10 from 1214 users
◎豆瓣链接 https://movie.douban.com/subject/35408024/
◎集  数 8
◎导  演 克雷格·吉勒斯佩 Craig Gillespie / 蕾克·贝尔 Lake Bell / 格温妮丝·霍德-佩顿 Gwyneth Horder-Payton / 汉娜·菲德尔 Hannah Fidell
◎编  剧 罗伯特·D·西格尔 Robert D. Siegel / D·V·德文森蒂斯 D.V. DeVincentis / 马修·巴斯 Matthew Bass / 西奥多·布雷斯曼 Theodore Bressman / 布鲁克·贝克 Brooke Baker / 萨拉·歌宾斯 Sarah Gubbins / 阿曼达·芝加哥·刘易斯 Amanda Chicago Lewis
◎主  演 莉莉·詹姆斯 Lily James
                  塞巴斯蒂安·斯坦 Sebastian Stan
                  塞斯·罗根 Seth Rogen
                  泰勒·席林 Taylor Schilling
                  尼克·奥弗曼 Nick Offerman
                  安德鲁·戴斯·克雷 Andrew Dice Clay
                  佩皮·索努加 Pepi Sonuga
                  莫赞·玛诺 Mozhan Marnò
                  米达宁·拉希米 Medalion Rahimi
                  保罗·本-维克托 Paul Ben-Victor
                  乔纳森·斯莱文 Jonathan Slavin
                  克里斯托弗·马修·库克 Christopher Matthew Cook
                  马克·马奥尼 Mark Mahoney
                  弗莱德·赫钦格 Fred Hechinger
                  乔希·班迪 Josh Banday
                  吉诺·卡法雷利 Gino Cafarelli
                  约翰尼·雷伊·迪亚兹 Johnny Rey Diaz
                  斯宾塞·格兰斯 Spenser Granese
                  克林特·霍华德 Clint Howard


◎简  介


       莉莉·詹姆斯和塞巴斯蒂安·斯坦主演Hulu新剧《帕姆与汤米》首曝定妆照[并不简单]
  两人饰演现实中极具话题性的前任夫妇:演员&模特帕梅拉·安德森(《海岸救生队》)和克鲁小丑合唱团鼓手&音乐人汤米·李,他们的恋情多年来见诸八卦小报,包括著名的蜜月性爱录像带被偷窃并泄露的丑闻。
  罗伯特·西格尔(《大创业家》《极速蜗牛》)写剧本,塞斯·罗根饰演偷窃者并担任制作人,克雷格·吉勒斯佩(《我,花样女王》《傲慢与偏见与僵尸》)执导,共8集。
  该剧主要聚焦性丑闻,也会详细讲述两人的闪电恋情:1995年,相识96小时后他们就结婚了。
  当时性爱录像带泄露一事演变成了一场相当激烈的法律纠纷,安德森起诉了发行公司Internet Entertainment Group,最终,李与该公司达成了一项秘密和解协议。此后,该公司重新开始向其网站的订阅者公开录像带,导致流量为正常的三倍。

Video
ID : 1
Format : HEVC
Format/Info : High Efficiency Video Coding
Format profile : Main 10@L5@High
HDR format : SMPTE ST 2086, HDR10 compatible
Codec ID : V_MPEGH/ISO/HEVC
Duration : 51 min 48 s
Bit rate : 16.0 Mb/s
Width : 3 840 pixels
Height : 2 160 pixels
Display aspect ratio : 16:9
Frame rate mode : Constant
Frame rate : 23.976 (24000/1001) FPS
Color space : YUV
Chroma subsampling : 4:2:0
Bit depth : 10 bits
Bits/(Pixel*Frame) : 0.081
Stream size : 5.80 GiB (96%)
Default : Yes
Forced : No
Color range : Limited
Color primaries : BT.2020
Transfer characteristics : PQ
Matrix coefficients : BT.2020 non-constant
Mastering display color primaries : Display P3
Mastering display luminance : min: 0.0050 cd/m2, max: 1000 cd/m2

Audio
ID : 2
Format : E-AC-3
Format/Info : Enhanced AC-3
Commercial name : Dolby Digital Plus
Codec ID : A_EAC3
Duration : 51 min 48 s
Bit rate mode : Constant
Bit rate : 640 kb/s
Channel(s) : 6 channels
Channel layout : L R C LFE Ls Rs
Sampling rate : 48.0 kHz
Frame rate : 31.250 FPS (1536 SPF)
Bit depth : 32 bits
Compression mode : Lossy
Stream size : 237 MiB (4%)
Language : English
Service kind : Complete Main
Default : No
Forced : No

Text #1
ID : 3
Format : UTF-8
Codec ID : S_TEXT/UTF8
Codec ID/Info : UTF-8 Plain Text
Duration : 49 min 39 s
Bit rate : 61 b/s
Count of elements : 766
Stream size : 22.5 KiB (0%)
Language : English
Default : No
Forced : No

Text #2
ID : 4
Format : UTF-8
Codec ID : S_TEXT/UTF8
Codec ID/Info : UTF-8 Plain Text
Duration : 49 min 39 s
Bit rate : 65 b/s
Count of elements : 818
Stream size : 24.0 KiB (0%)
Title : SDH
Language : English
Default : No
Forced : No

Text #3
ID : 5
Format : UTF-8
Codec ID : S_TEXT/UTF8
Codec ID/Info : UTF-8 Plain Text
Duration : 49 min 54 s
Bit rate : 56 b/s
Count of elements : 516
Stream size : 20.6 KiB (0%)
Language : Danish
Default : No
Forced : No

Text #4
ID : 6
Format : UTF-8
Codec ID : S_TEXT/UTF8
Codec ID/Info : UTF-8 Plain Text
Duration : 51 min 27 s
Bit rate : 61 b/s
Count of elements : 744
Stream size : 23.1 KiB (0%)
Language : German
Default : No
Forced : No

Text #5
ID : 7
Format : UTF-8
Codec ID : S_TEXT/UTF8
Codec ID/Info : UTF-8 Plain Text
Duration : 51 min 27 s
Bit rate : 98 b/s
Count of elements : 759
Stream size : 37.1 KiB (0%)
Language : Greek
Default : No
Forced : No

Text #6
ID : 8
Format : UTF-8
Codec ID : S_TEXT/UTF8
Codec ID/Info : UTF-8 Plain Text
Duration : 49 min 53 s
Bit rate : 58 b/s
Count of elements : 756
Stream size : 21.3 KiB (0%)
Title : Español (Latinoamericano)
Language : Spanish
Default : No
Forced : No

Text #7
ID : 9
Format : UTF-8
Codec ID : S_TEXT/UTF8
Codec ID/Info : UTF-8 Plain Text
Duration : 49 min 53 s
Bit rate : 59 b/s
Count of elements : 756
Stream size : 21.7 KiB (0%)
Title : Español
Language : Spanish
Default : No
Forced : No

Text #8
ID : 10
Format : UTF-8
Codec ID : S_TEXT/UTF8
Codec ID/Info : UTF-8 Plain Text
Duration : 51 min 27 s
Bit rate : 54 b/s
Count of elements : 759
Stream size : 20.6 KiB (0%)
Language : Finnish
Default : No
Forced : No

Text #9
ID : 11
Format : UTF-8
Codec ID : S_TEXT/UTF8
Codec ID/Info : UTF-8 Plain Text
Duration : 51 min 27 s
Bit rate : 51 b/s
Count of elements : 703
Stream size : 19.3 KiB (0%)
Language : French
Default : No
Forced : No

Text #10
ID : 12
Format : UTF-8
Codec ID : S_TEXT/UTF8
Codec ID/Info : UTF-8 Plain Text
Duration : 49 min 53 s
Bit rate : 58 b/s
Count of elements : 759
Stream size : 21.5 KiB (0%)
Language : Italian
Default : No
Forced : No

Text #11
ID : 13
Format : UTF-8
Codec ID : S_TEXT/UTF8
Codec ID/Info : UTF-8 Plain Text
Duration : 51 min 30 s
Bit rate : 48 b/s
Count of elements : 715
Stream size : 18.4 KiB (0%)
Language : Japanese
Default : No
Forced : No

Text #12
ID : 14
Format : UTF-8
Codec ID : S_TEXT/UTF8
Codec ID/Info : UTF-8 Plain Text
Duration : 51 min 27 s
Bit rate : 60 b/s
Count of elements : 772
Stream size : 22.8 KiB (0%)
Language : Korean
Default : No
Forced : No

Text #13
ID : 15
Format : UTF-8
Codec ID : S_TEXT/UTF8
Codec ID/Info : UTF-8 Plain Text
Duration : 51 min 27 s
Bit rate : 49 b/s
Count of elements : 584
Stream size : 18.8 KiB (0%)
Language : Dutch
Default : No
Forced : No

Text #14
ID : 16
Format : UTF-8
Codec ID : S_TEXT/UTF8
Codec ID/Info : UTF-8 Plain Text
Duration : 51 min 27 s
Bit rate : 54 b/s
Count of elements : 756
Stream size : 20.6 KiB (0%)
Language : Norwegian
Default : No
Forced : No

Text #15
ID : 17
Format : UTF-8
Codec ID : S_TEXT/UTF8
Codec ID/Info : UTF-8 Plain Text
Duration : 51 min 27 s
Bit rate : 54 b/s
Count of elements : 749
Stream size : 20.7 KiB (0%)
Language : Polish
Default : No
Forced : No

Text #16
ID : 18
Format : UTF-8
Codec ID : S_TEXT/UTF8
Codec ID/Info : UTF-8 Plain Text
Duration : 51 min 27 s
Bit rate : 54 b/s
Count of elements : 762
Stream size : 20.5 KiB (0%)
Title : Português (Brasil)
Language : Portuguese
Default : No
Forced : No

Text #17
ID : 19
Format : UTF-8
Codec ID : S_TEXT/UTF8
Codec ID/Info : UTF-8 Plain Text
Duration : 49 min 53 s
Bit rate : 58 b/s
Count of elements : 759
Stream size : 21.2 KiB (0%)
Title : Português
Language : Portuguese
Default : No
Forced : No

Text #18
ID : 20
Format : UTF-8
Codec ID : S_TEXT/UTF8
Codec ID/Info : UTF-8 Plain Text
Duration : 51 min 27 s
Bit rate : 53 b/s
Count of elements : 755
Stream size : 20.3 KiB (0%)
Language : Romanian
Default : No
Forced : No

Text #19
ID : 21
Format : UTF-8
Codec ID : S_TEXT/UTF8
Codec ID/Info : UTF-8 Plain Text
Duration : 51 min 27 s
Bit rate : 58 b/s
Count of elements : 758
Stream size : 22.1 KiB (0%)
Language : Swedish
Default : No
Forced : No

Text #20
ID : 22
Format : UTF-8
Codec ID : S_TEXT/UTF8
Codec ID/Info : UTF-8 Plain Text
Duration : 49 min 53 s
Bit rate : 60 b/s
Count of elements : 765
Stream size : 22.2 KiB (0%)
Language : Turkish
Default : No
Forced : No

Text #21
ID : 23
Format : UTF-8
Codec ID : S_TEXT/UTF8
Codec ID/Info : UTF-8 Plain Text
Duration : 51 min 27 s
Bit rate : 50 b/s
Count of elements : 765
Stream size : 19.1 KiB (0%)
Title : 中文(简体)
Language : 中文
Default : No
Forced : No

Text #22
ID : 24
Format : UTF-8
Codec ID : S_TEXT/UTF8
Codec ID/Info : UTF-8 Plain Text
Duration : 51 min 27 s
Bit rate : 48 b/s
Count of elements : 770
Stream size : 18.4 KiB (0%)
Title : 中文(繁体)
Language : 中文
Default : No
Forced : No


Menu
00:00:00.000 : :Chapter 1
00:02:39.785 : :Intro start
00:02:46.667 : :Intro end
00:50:25.108 : :Credits

下载地址:

游客,如果您要查看本帖隐藏内容请回复




.

上一篇:幻灭 / Disenchantment (2018) / 第一季10集全 / 4K高清版本下载
下一篇:亚特兰大 / Atlanta (2022) / 第三季10集全 / 4K高清版本下载
回复

使用道具 举报

2

主题

1418

帖子

4272

积分

4K家园VIP

Rank: 9Rank: 9Rank: 9

积分
4272
发表于 2022-5-20 10:52:50 来自手机 | 显示全部楼层
支持下楼主,顶一个
回复 支持 反对

使用道具 举报

2

主题

1345

帖子

3889

积分

4K家园VIP

Rank: 9Rank: 9Rank: 9

积分
3889
发表于 2022-5-21 21:16:51 | 显示全部楼层
支持,赞一个
回复 支持 反对

使用道具 举报

1

主题

1321

帖子

3791

积分

4K家园VIP

Rank: 9Rank: 9Rank: 9

积分
3791
发表于 2022-5-25 05:21:11 来自手机 | 显示全部楼层
呵呵。。。
回复 支持 反对

使用道具 举报

1

主题

1309

帖子

3953

积分

4K家园VIP

Rank: 9Rank: 9Rank: 9

积分
3953
发表于 2022-5-25 08:12:48 | 显示全部楼层
支持,楼下的跟上哈~
回复 支持 反对

使用道具 举报

1

主题

1154

帖子

3482

积分

4K家园VIP

Rank: 9Rank: 9Rank: 9

积分
3482
发表于 2022-5-27 01:37:02 | 显示全部楼层
分享的不错,希望楼主继续分享
回复 支持 反对

使用道具 举报

您需要登录后才可以回帖 登录 | 立即注册

本版积分规则

精彩图文
Archiver|手机版|TAG|Sitemap|新帖|专题|联系我们:邮箱: 4kjia.com@gmail.com   

4k家园   ©2019