[4K电影] 心碎 / Torn Hearts (2022) 4K高清版本下载

[复制链接]

1868

主题

2007

帖子

1万

积分

超级版主

Rank: 8Rank: 8

积分
15027
 楼主| 发表于 2022-5-20 17:34:37 | 显示全部楼层 |阅读模式

QQ图片20220520173122_副本.png

◎译  名 心碎 / Tattered Hearts
◎片  名 Torn Hearts
◎年  代 2022
◎产  地 美国
◎类  别 惊悚 / 恐怖
◎上映日期 2022-05-20(美国)
◎IMDb链接 https://www.imdb.com/title/tt15053518/
◎豆瓣链接 https://movie.douban.com/subject/35729437/
◎导  演 布瑞亚·格兰特 Brea Grant
◎编  剧 雷切尔·科勒·克罗夫特 Rachel Koller Croft
◎演  员 凯特蕾·萨加尔 Katey Sagal
       希罗·弗南德兹 Shiloh Fernandez
       艾比·奎因 Abby Quinn



◎简  介

  讲述了一对乡村音乐二重唱寻找偶像的私人宅邸,最终陷入一系列扭曲的恐怖,迫使他们面对梦想的极限。

Video
ID : 1
Format : HEVC
Format/Info : High Efficiency Video Coding
Format profile : Main 10@L5@High
Codec ID : V_MPEGH/ISO/HEVC
Duration : 1 h 37 min
Bit rate : 12.0 Mb/s
Width : 3 840 pixels
Height : 1 606 pixels
Display aspect ratio : 2.40:1
Frame rate mode : Constant
Frame rate : 23.976 FPS
Color space : YUV
Chroma subsampling : 4:2:0
Bit depth : 10 bits
Bits/(Pixel*Frame) : 0.081
Stream size : 8.13 GiB (97%)
Language : English
Default : Yes
Forced : No
Color range : Limited
Color primaries : BT.709
Transfer characteristics : BT.709
Matrix coefficients : BT.709

Audio
ID : 2
Format : AC-3
Format/Info : Audio Coding 3
Commercial name : Dolby Digital
Codec ID : A_AC3
Duration : 1 h 37 min
Bit rate mode : Constant
Bit rate : 384 kb/s
Channel(s) : 6 channels
Channel layout : L R C LFE Ls Rs
Sampling rate : 48.0 kHz
Frame rate : 31.250 FPS (1536 SPF)
Compression mode : Lossy
Stream size : 267 MiB (3%)
Language : English
Service kind : Complete Main
Default : Yes
Forced : No

Text
ID : 3
Format : UTF-8
Codec ID : S_TEXT/UTF8
Codec ID/Info : UTF-8 Plain Text
Duration : 1 h 36 min
Bit rate : 68 b/s
Count of elements : 1590
Stream size : 48.5 KiB (0%)
Language : English
Default : Yes
Forced : No


资源速度为零或资源敏感被和谐时,推荐使用qBittorrent等下载软件,有条件的推荐115更好的下载软件!

下载地址:


游客,如果您要查看本帖隐藏内容请回复





上一篇:替身演员(简繁中字)/The Valet (2022) 4K高清版本下载
下一篇:奇奇与蒂蒂:救援突击队(简繁中字)(2022) 4K高清版本下载
回复

使用道具 举报

1

主题

1360

帖子

4108

积分

4K家园VIP

Rank: 9Rank: 9Rank: 9

积分
4108
发表于 2022-5-20 17:34:42 来自手机 | 显示全部楼层
我也顶起出售广告位
回复 支持 反对

使用道具 举报

0

主题

54

帖子

971

积分

新手上路

Rank: 1

积分
971
发表于 2022-5-22 10:32:40 | 显示全部楼层
谢谢谢谢谢谢谢
回复 支持 反对

使用道具 举报

51

主题

1475

帖子

4329

积分

4K家园VIP

Rank: 9Rank: 9Rank: 9

积分
4329
发表于 2022-5-28 15:21:15 | 显示全部楼层
有4K版卡,下个看下
回复 支持 反对

使用道具 举报

3

主题

1334

帖子

4028

积分

4K家园VIP

Rank: 9Rank: 9Rank: 9

积分
4028
发表于 2022-6-4 02:34:46 | 显示全部楼层
大人,此事必有蹊跷!
回复 支持 反对

使用道具 举报

0

主题

1353

帖子

4069

积分

4K家园VIP

Rank: 9Rank: 9Rank: 9

积分
4069
发表于 2022-6-8 14:06:55 | 显示全部楼层
4K版的应该更清晰吧
回复 支持 反对

使用道具 举报

58

主题

1562

帖子

4496

积分

4K家园VIP

Rank: 9Rank: 9Rank: 9

积分
4496
发表于 2022-6-14 14:18:29 | 显示全部楼层
感谢楼主的分享,还是阔以滴
回复 支持 反对

使用道具 举报

您需要登录后才可以回帖 登录 | 立即注册

本版积分规则

精彩图文
Archiver|手机版|TAG|Sitemap|新帖|专题|联系我们:邮箱: 4kjia.com@gmail.com   

4k家园   ©2019