[4K电影] Good.Mourning (2022) 4K高清版本下载

[复制链接]

1868

主题

2007

帖子

1万

积分

超级版主

Rank: 8Rank: 8

积分
15027
 楼主| 发表于 2022-5-20 18:07:31 | 显示全部楼层 |阅读模式

a52b9614be52eb6ed9178d13cc416029_副本.jpg

◎译  名 Good
◎片  名 Good Mourning
◎年  代 2022
◎产  地 美国
◎类  别 喜剧
◎语  言 英语
◎上映日期 2022-05-20(美国)
◎IMDb评分  3.7/10 from 9 users
◎IMDb链接  https://www.imdb.com/title/tt15331186/
◎豆瓣评分 /10 from 0 users
◎豆瓣链接 https://movie.douban.com/subject/35618568/
◎导  演 机关枪·凯利 Machine Gun Kelly
◎编  剧 机关枪·凯利 Machine Gun Kelly
◎主  演 梅根·福克斯 Megan Fox
       德芙·卡梅隆 Dove Cameron
       机关枪·凯利 Machine Gun Kelly
       皮特·戴维森 Pete Davidson
       珍娜·博伊德 Jenna Boyd
       惠特妮·卡明 Whitney Cummings
       贝姬·戈麦斯 Becky G
       扎克·维拉 Zach Villa
       琳娜·妮可 Lena Nicole



◎简  介

         《伦敦冲突》(LondonClash)之后,这位电影明星的世界发生了翻天覆地的变化,他必须在追求真爱和改变人生之间做出选择,在一部大型电影中扮演主角。

Video
ID : 1
Format : HEVC
Format/Info : High Efficiency Video Coding
Format profile : Main 10@L5@High
Codec ID : V_MPEGH/ISO/HEVC
Duration : 1 h 33 min
Bit rate : 12.0 Mb/s
Width : 3 840 pixels
Height : 1 604 pixels
Display aspect ratio : 2.40:1
Frame rate mode : Constant
Frame rate : 23.976 FPS
Color space : YUV
Chroma subsampling : 4:2:0
Bit depth : 10 bits
Bits/(Pixel*Frame) : 0.081
Stream size : 7.81 GiB (97%)
Language : English
Default : Yes
Forced : No
Color range : Limited
Color primaries : BT.709
Transfer characteristics : BT.709
Matrix coefficients : BT.709

Audio
ID : 2
Format : AC-3
Format/Info : Audio Coding 3
Commercial name : Dolby Digital
Codec ID : A_AC3
Duration : 1 h 33 min
Bit rate mode : Constant
Bit rate : 384 kb/s
Channel(s) : 6 channels
Channel layout : L R C LFE Ls Rs
Sampling rate : 48.0 kHz
Frame rate : 31.250 FPS (1536 SPF)
Compression mode : Lossy
Stream size : 256 MiB (3%)
Language : English
Service kind : Complete Main
Default : Yes
Forced : No

Text
ID : 3
Format : UTF-8
Codec ID : S_TEXT/UTF8
Codec ID/Info : UTF-8 Plain Text
Duration : 1 h 32 min
Bit rate : 87 b/s
Count of elements : 1940
Stream size : 59.4 KiB (0%)
Language : English
Default : Yes
Forced : No


资源速度为零或资源敏感被和谐时,推荐使用qBittorrent等下载软件,有条件的推荐115更好的下载软件!

下载地址:


游客,如果您要查看本帖隐藏内容请回复






上一篇:奇奇与蒂蒂:救援突击队(简繁中字)(2022) 4K高清版本下载
下一篇:RRR / Roudram Ranam Rudhiram (2022) 4k高清版本下载
回复

使用道具 举报

44

主题

1524

帖子

4390

积分

4K家园VIP

Rank: 9Rank: 9Rank: 9

积分
4390
发表于 2022-5-20 18:07:38 | 显示全部楼层
感谢分享
回复 支持 反对

使用道具 举报

0

主题

2

帖子

9

积分

新手上路

Rank: 1

积分
9
发表于 2022-5-21 18:21:25 | 显示全部楼层
新人报道!!!
回复

使用道具 举报

11

主题

1272

帖子

3800

积分

4K家园VIP

Rank: 9Rank: 9Rank: 9

积分
3800
发表于 2022-5-24 11:03:52 | 显示全部楼层
支持,楼下的跟上哈~
回复 支持 反对

使用道具 举报

201

主题

1743

帖子

4791

积分

4K家园VIP

Rank: 9Rank: 9Rank: 9

积分
4791
发表于 2022-5-29 04:17:36 | 显示全部楼层
LZ帖子不给力,勉强给回复下吧
回复 支持 反对

使用道具 举报

2

主题

1422

帖子

4239

积分

4K家园VIP

Rank: 9Rank: 9Rank: 9

积分
4239
发表于 2022-6-6 22:34:40 | 显示全部楼层
这么强,支持楼主,佩服
回复 支持 反对

使用道具 举报

0

主题

1

帖子

6

积分

新手上路

Rank: 1

积分
6
发表于 2022-6-7 11:25:24 来自手机 | 显示全部楼层
66666666
回复

使用道具 举报

1

主题

1346

帖子

4054

积分

4K家园VIP

Rank: 9Rank: 9Rank: 9

积分
4054
发表于 2022-6-19 12:33:47 | 显示全部楼层
没看懂
回复 支持 反对

使用道具 举报

您需要登录后才可以回帖 登录 | 立即注册

本版积分规则

精彩图文
Archiver|手机版|TAG|Sitemap|新帖|专题|联系我们:邮箱: 4kjia.com@gmail.com   

4k家园   ©2019