亚特兰大 / Atlanta (2022) / 第三季10集全 / 4K高清版本下载

[复制链接]

154

主题

175

帖子

1746

积分

版主

Rank: 7Rank: 7Rank: 7

积分
1746
 楼主| 发表于 2022-5-22 15:24:39 | 显示全部楼层 |阅读模式
本帖最后由 叽里呱啦 于 2022-5-22 20:33 编辑

p2867564072_副本.jpg

◎译  名 亚特兰大 第三季
◎片  名 Atlanta Season 3
◎年  代 2022
◎产  地 美国
◎类  别 剧情 / 喜剧 / 音乐
◎语  言 英语
◎上映日期 2022-03-24(美国)
◎IMDb评分  8.6/10 from 66478 users
◎IMDb链接  https://www.imdb.com/title/tt4288182/
◎豆瓣评分 9.5/10 from 1256 users
◎豆瓣链接 https://douban.com/subject/30243398/
◎集  数 10
◎编  剧 唐纳德·格洛弗 Donald Glover
◎主  演 唐纳德·格洛弗 Donald Glover
                    布莱恩·泰里·亨利 Brian Tyree Henry
        勒凯斯·斯坦菲尔德 Lakeith Stanfield
        莎姬·贝兹 Zazie Beetz
        杰米·纽曼 Jamie Neumann
                    劳拉·德莱弗斯 Laura Dreyfuss
                    伊拉娜·古拉尔尼克 Ilana Guralnik
                    托拜厄斯·西格尔 Tobias Segal
                    连姆·尼森 Liam Neeson

◎简  介


   剧集故事讲述了一对表兄弟在亚特兰大这南方说唱之地,为了自己及家人能过更好的生活而打拼。

Video
ID : 1
Format : HEVC
Format/Info : High Efficiency Video Coding
Format profile : Main 10@L5.1@Main
Codec ID : V_MPEGH/ISO/HEVC
Duration : 36 min 58 s
Bit rate : 15.4 Mb/s
Width : 3 840 pixels
Height : 2 160 pixels
Display aspect ratio : 16:9
Frame rate mode : Constant
Frame rate : 23.976 (24000/1001) FPS
Color space : YUV
Chroma subsampling : 4:2:0
Bit depth : 10 bits
Bits/(Pixel*Frame) : 0.078
Stream size : 3.99 GiB (96%)
Default : Yes
Forced : No

Audio
ID : 2
Format : E-AC-3
Format/Info : Enhanced AC-3
Commercial name : Dolby Digital Plus
Codec ID : A_EAC3
Duration : 36 min 52 s
Bit rate mode : Constant
Bit rate : 640 kb/s
Channel(s) : 6 channels
Channel layout : L R C LFE Ls Rs
Sampling rate : 48.0 kHz
Frame rate : 31.250 FPS (1536 SPF)
Compression mode : Lossy
Delay relative to video : 5 s 65 ms
Stream size : 169 MiB (4%)
Language : English
Service kind : Complete Main
Default : Yes
Forced : No

Text #1
ID : 3
Format : UTF-8
Codec ID : S_TEXT/UTF8
Codec ID/Info : UTF-8 Plain Text
Duration : 33 min 31 s
Bit rate : 54 b/s
Count of elements : 447
Stream size : 13.3 KiB (0%)
Language : English
Default : No
Forced : No

Text #2
ID : 4
Format : UTF-8
Codec ID : S_TEXT/UTF8
Codec ID/Info : UTF-8 Plain Text
Duration : 36 min 37 s
Bit rate : 67 b/s
Count of elements : 600
Stream size : 18.0 KiB (0%)
Title : SDH
Language : English
Default : No
Forced : No

Menu
00:00:00.000 : en:Begin
00:10:31.000 : en:Chapter 1
00:17:12.000 : en:Chapter 2
00:20:26.000 : en:Chapter 3
00:26:53.000 : en:Chapter 4

下载地址:

游客,如果您要查看本帖隐藏内容请回复






上一篇:帕姆与汤米(简繁中字)(2022)/ 第一季8集全 / 4K高清版本下载
下一篇:爱芯 / Made for Love (2022) / 第二季8集全 / 4K高清版本下载
回复

使用道具 举报

0

主题

1359

帖子

4091

积分

4K家园VIP

Rank: 9Rank: 9Rank: 9

积分
4091
发表于 2022-5-22 15:25:05 | 显示全部楼层
试试先,好用再说
回复 支持 反对

使用道具 举报

0

主题

1720

帖子

4768

积分

4K家园VIP

Rank: 9Rank: 9Rank: 9

积分
4768
发表于 2022-5-22 18:18:25 | 显示全部楼层
分享的不错,希望楼主继续分享
回复 支持 反对

使用道具 举报

1

主题

1346

帖子

4054

积分

4K家园VIP

Rank: 9Rank: 9Rank: 9

积分
4054
发表于 2022-5-22 19:02:14 | 显示全部楼层
有空一起交流一下
回复 支持 反对

使用道具 举报

1

主题

1363

帖子

3921

积分

4K家园VIP

Rank: 9Rank: 9Rank: 9

积分
3921
发表于 2022-5-22 19:14:06 来自手机 | 显示全部楼层
前排顶,很好!
回复 支持 反对

使用道具 举报

37

主题

1512

帖子

4340

积分

4K家园VIP

Rank: 9Rank: 9Rank: 9

积分
4340
发表于 2022-5-22 20:24:45 | 显示全部楼层
额.....这个可以有
回复 支持 反对

使用道具 举报

您需要登录后才可以回帖 登录 | 立即注册

本版积分规则

精彩图文
Archiver|手机版|TAG|Sitemap|新帖|专题|联系我们:邮箱: 4kjia.com@gmail.com   

4k家园   ©2019