爱芯 / Made for Love (2022) / 第二季8集全 / 4K高清版本下载

[复制链接]

155

主题

176

帖子

1760

积分

版主

Rank: 7Rank: 7Rank: 7

积分
1760
 楼主| 发表于 2022-5-22 15:47:39 | 显示全部楼层 |阅读模式
本帖最后由 叽里呱啦 于 2022-5-22 20:33 编辑

772a55a62b26eea614f2b509aa2e97c7_副本.jpg

◎译  名 爱芯 第二季/爱的超级晶片
◎片  名 Made for Love Season 2
◎年  代 2022
◎产  地 美国
◎类  别 剧情/喜剧/科幻/惊悚
◎语  言 英语
◎上映日期 2022-04-28(美国)
◎IMDb评分  6.8/10 from 9203 users
◎IMDb链接  https://www.imdb.com/title/tt7808566/
◎豆瓣评分 7.6/10 from 107 users
◎豆瓣链接 https://douban.com/subject/35852744/
◎主  演 克里斯汀·米利欧缇 Cristin Milioti
        克里斯·迪亚曼托普洛斯 Chris Diamantopoulos
        卡洛斯·安东尼奥 Carlos Antonio
         凯莱布·富特 Caleb Foote
        萨鲁纳斯·J·杰克逊 Sarunas J. Jackson
        宝拉·阿巴杜 Paula Abdul
        维萨姆·基什 Wesam Keesh
        安吉拉·林 Angela Lin


◎简  介


      描述30几岁海兹尔(Hazel)在十多年的婚姻生活后,因受不了科技大亨丈夫的偏执行为决定离婚。没多久,她发现丈夫竟在她的脑中植入监控设备,查看她的一举一动,这让希望展开新人生的她不得不采取激烈手段,逃离丈夫的掌控。
Video
ID : 1
Format : HEVC
Format/Info : High Efficiency Video Coding
Format profile : Main@L5@High
Codec ID : V_MPEGH/ISO/HEVC
Duration : 32 min 17 s
Bit rate : 14.0 Mb/s
Width : 3 840 pixels
Height : 2 160 pixels
Display aspect ratio : 16:9
Frame rate mode : Constant
Frame rate : 23.976 (23976/1000) FPS
Original frame rate : 23.976 (24000/1001) FPS
Color space : YUV
Chroma subsampling : 4:2:0
Bit depth : 8 bits
Bits/(Pixel*Frame) : 0.070
Stream size : 3.16 GiB (97%)
Default : Yes
Forced : No
Color range : Limited
Color primaries : BT.709
Transfer characteristics : BT.709
Matrix coefficients : BT.709

Audio
ID : 2
Format : E-AC-3
Format/Info : Enhanced AC-3
Commercial name : Dolby Digital Plus
Codec ID : A_EAC3
Duration : 32 min 17 s
Bit rate mode : Constant
Bit rate : 384 kb/s
Channel(s) : 6 channels
Channel layout : L R C LFE Ls Rs
Sampling rate : 48.0 kHz
Frame rate : 31.250 FPS (1536 SPF)
Compression mode : Lossy
Stream size : 88.7 MiB (3%)
Language : English
Service kind : Complete Main
Default : Yes
Forced : No

Text #1
ID : 3
Format : UTF-8
Codec ID : S_TEXT/UTF8
Codec ID/Info : UTF-8 Plain Text
Duration : 30 min 32 s
Bit rate : 55 b/s
Count of elements : 486
Stream size : 12.5 KiB (0%)
Language : English
Default : No
Forced : No

Text #2
ID : 4
Format : UTF-8
Codec ID : S_TEXT/UTF8
Codec ID/Info : UTF-8 Plain Text
Duration : 31 min 56 s
Bit rate : 69 b/s
Count of elements : 615
Stream size : 16.3 KiB (0%)
Title : SDH
Language : English
Default : No
Forced : No

Menu
00:00:00.000 : en:Begin
00:31:00.000 : en:Credits


下载地址:

游客,如果您要查看本帖隐藏内容请回复






上一篇:亚特兰大 / Atlanta (2022) / 第三季10集全 / 4K高清版本下载
下一篇:侠探杰克 (简繁中字) (2022) / 第一季全8集/4K高清版本下载
回复

使用道具 举报

1

主题

1379

帖子

4157

积分

4K家园VIP

Rank: 9Rank: 9Rank: 9

积分
4157
发表于 2022-5-22 15:47:59 来自手机 | 显示全部楼层
路过的帮顶
回复 支持 反对

使用道具 举报

51

主题

1527

帖子

4387

积分

4K家园VIP

Rank: 9Rank: 9Rank: 9

积分
4387
发表于 2022-5-22 19:50:39 | 显示全部楼层
看起来好像不错的样子
回复 支持 反对

使用道具 举报

2

主题

1418

帖子

4272

积分

4K家园VIP

Rank: 9Rank: 9Rank: 9

积分
4272
发表于 2022-5-22 22:24:30 | 显示全部楼层
没看懂
回复 支持 反对

使用道具 举报

0

主题

1340

帖子

4048

积分

4K家园VIP

Rank: 9Rank: 9Rank: 9

积分
4048
发表于 2022-5-24 08:32:47 | 显示全部楼层
啊啊啊啊啊啊啊啊啊啊啊
回复 支持 反对

使用道具 举报

60

主题

1492

帖子

4332

积分

4K家园VIP

Rank: 9Rank: 9Rank: 9

积分
4332
发表于 2022-5-24 12:16:32 | 显示全部楼层
回复 支持 反对

使用道具 举报

您需要登录后才可以回帖 登录 | 立即注册

本版积分规则

精彩图文
Archiver|手机版|TAG|Sitemap|新帖|专题|联系我们:邮箱: 4kjia.com@gmail.com   

4k家园   ©2019