[4K电影] 小妇人(简繁中字)/ Little Women (1994) 4K高清版本下载

[复制链接]

1868

主题

2007

帖子

1万

积分

超级版主

Rank: 8Rank: 8

积分
15027
 楼主| 发表于 2022-5-23 19:54:58 | 显示全部楼层 |阅读模式
QQ图片20220523194214_副本.png

◎译  名 小妇人/新小妇人
◎片  名 Little Women
◎年  代 1994
◎国  家 美国/加拿大
◎类  别 剧情/家庭/爱情
◎语  言 英语/德语
◎上映日期 1994-12-21
◎IMDb评分  7.3/10 from 57759 users
◎IMDb链接  http://www.imdb.com/title/tt0110367/
◎豆瓣评分 8.0/10 from 67454 users
◎豆瓣链接 https://movie.douban.com/subject/1298522/
◎片  长 115 分钟
◎导  演 吉莉安·阿姆斯特朗 Gillian Armstrong
◎主  演 薇诺娜·瑞德 Winona Ryder
      加布里埃尔·伯恩 Gabriel Byrne
      翠尼·阿瓦拉多 Trini Alvarado
      萨曼莎·玛西丝 Samantha Mathis
      克斯汀·邓斯特 Kirsten Dunst
      克莱尔·丹妮丝 Claire Danes
      克里斯蒂安·贝尔 Christian Bale
      苏珊·萨兰登 Susan Sarandon


◎简  介


  南北战争时期,马萨诸塞州的康科德城。

  马其家是镇上一个普通家庭,父亲在外打仗,留下坚强的妻子和四个女儿。Meg十六岁,俨然一个窈窕淑女。Joe(薇瑞娜•赖德)十五岁,喜爱写作,发表的文章为家里付清了各种费用。Beth温柔乖巧,羞怯地爱好着钢琴。Amy最小也最漂亮,也有点爱出风头。马其太太的坚强给了四个女儿力量,她们时常接济贫穷的居民,圣诞节也不例外。当她们的邻居劳伦斯先生听说此事后便准备了丰富的晚餐给这群可爱的小妇人们。

  而劳伦斯的孙子劳里也跟Joe成为了好朋友,成为了马其家的一员。他的家庭教师约翰爱上了Meg,Beth在照顾生病的邻居孩子时感染上了猩红热,在最危险的时候,去华盛顿照顾受伤父亲的妈妈回来了,把父亲也带回来,他们一家团聚。

  四年后,Meg和约翰终于喜结连理,大学毕业的劳里也向Joe求婚,却惨遭拒绝,打击太大的他愤而离家,辗转欧洲,偶遇在欧洲旅游的Amy,此时的Amy早已改掉了虚荣的毛病,她对劳里的关切打动了劳里的心,他们决定结婚。然而此时却传来了Beth病危的消息,还没赶到家Beth已经离开了大家。

  心灰意冷的Joe去了纽约,认识了她生命中的真命天子。


◎获奖情况

  第67届奥斯卡金像奖  (1995)
  最佳女主角(提名) 薇诺娜·瑞德
  最佳服装设计(提名) 柯琳·阿特伍德
  最佳原创配乐(提名) 托马斯·纽曼

Video
ID : 1
Format : HEVC
Format/Info : High Efficiency Video Coding
Format profile : Main 10@L5@High
HDR format : Dolby Vision, Version 1.0, dvhe.05.06, BL+RPU
Codec ID : V_MPEGH/ISO/HEVC
Duration : 1 h 58 min
Bit rate : 24.9 Mb/s
Width : 3 840 pixels
Height : 2 072 pixels
Display aspect ratio : 1.85:1
Frame rate mode : Constant
Frame rate : 23.976 (24000/1001) FPS
Color space : YUV
Chroma subsampling : 4:2:0
Bit depth : 10 bits
Bits/(Pixel*Frame) : 0.130
Stream size : 20.6 GiB (85%)
Default : Yes
Forced : No

Audio #1
ID : 2
Format : DTS XLL
Format/Info : Digital Theater Systems
Commercial name : DTS-HD Master Audio
Codec ID : A_DTS
Duration : 1 h 58 min
Bit rate mode : Variable
Bit rate : 3 606 kb/s
Channel(s) : 6 channels
Channel layout : C L R Ls Rs LFE
Sampling rate : 48.0 kHz
Frame rate : 93.750 FPS (512 SPF)
Bit depth : 24 bits
Compression mode : Lossless
Delay relative to video : 6 ms
Stream size : 2.98 GiB (12%)
Title : DTS-HD MA 5.1
Language : English
Default : Yes
Forced : No

Audio #2
ID : 3
Format : E-AC-3
Format/Info : Enhanced AC-3
Commercial name : Dolby Digital Plus
Codec ID : A_EAC3
Duration : 1 h 58 min
Bit rate mode : Constant
Bit rate : 256 kb/s
Channel(s) : 6 channels
Channel layout : L R C LFE Ls Rs
Sampling rate : 48.0 kHz
Frame rate : 31.250 FPS (1536 SPF)
Compression mode : Lossy
Delay relative to video : 28 ms
Stream size : 217 MiB (1%)
Title : DDP 5.1
Language : English
Service kind : Complete Main
Default : No
Forced : No

Audio #3
ID : 4
Format : AC-3
Format/Info : Audio Coding 3
Commercial name : Dolby Digital
Codec ID : A_AC3
Duration : 1 h 58 min
Bit rate mode : Constant
Bit rate : 384 kb/s
Channel(s) : 6 channels
Channel layout : L R C LFE Ls Rs
Sampling rate : 48.0 kHz
Frame rate : 31.250 FPS (1536 SPF)
Compression mode : Lossy
Stream size : 325 MiB (1%)
Language : English
Service kind : Complete Main
Default : Yes
Forced : No

Text #1
ID : 5
Format : UTF-8
Codec ID : S_TEXT/UTF8
Codec ID/Info : UTF-8 Plain Text
Duration : 1 h 51 min
Bit rate : 65 b/s
Count of elements : 1571
Stream size : 54.0 KiB (0%)
Title : English CC
Language : English
Default : Yes
Forced : No

Text #2
ID : 6
Format : UTF-8
Codec ID : S_TEXT/UTF8
Codec ID/Info : UTF-8 Plain Text
Duration : 1 h 57 min
Bit rate : 61 b/s
Count of elements : 855
Stream size : 52.9 KiB (0%)
Title : Arabic
Language : Arabic
Default : No
Forced : No

Text #3
ID : 7
Format : UTF-8
Codec ID : S_TEXT/UTF8
Codec ID/Info : UTF-8 Plain Text
Duration : 1 h 54 min
Bit rate : 45 b/s
Count of elements : 1392
Stream size : 37.8 KiB (0%)
Title : 中国普通话(中国繁体)
Language : 中文
Default : No
Forced : No


Text #4
ID : 8
Format : UTF-8
Codec ID : S_TEXT/UTF8
Codec ID/Info : UTF-8 Plain Text
Duration : 1 h 57 min
Bit rate : 44 b/s
Count of elements : 855
Stream size : 38.4 KiB (0%)
Title : Czech
Language : Czech
Default : No
Forced : No

Text #5
ID : 9
Format : UTF-8
Codec ID : S_TEXT/UTF8
Codec ID/Info : UTF-8 Plain Text
Duration : 1 h 53 min
Bit rate : 46 b/s
Count of elements : 854
Stream size : 38.4 KiB (0%)
Title : Danish
Language : Danish
Default : No
Forced : No

Text #6
ID : 10
Format : UTF-8
Codec ID : S_TEXT/UTF8
Codec ID/Info : UTF-8 Plain Text
Duration : 1 h 57 min
Bit rate : 48 b/s
Count of elements : 855
Stream size : 42.0 KiB (0%)
Title : German
Language : German
Default : No
Forced : No

Text #7
ID : 11
Format : UTF-8
Codec ID : S_TEXT/UTF8
Codec ID/Info : UTF-8 Plain Text
Duration : 1 h 57 min
Bit rate : 76 b/s
Count of elements : 855
Stream size : 66.0 KiB (0%)
Title : Greek
Language : Greek
Default : No
Forced : No

Text #8
ID : 12
Format : UTF-8
Codec ID : S_TEXT/UTF8
Codec ID/Info : UTF-8 Plain Text
Duration : 1 h 57 min
Bit rate : 42 b/s
Count of elements : 855
Stream size : 36.9 KiB (0%)
Title : Spanish European
Language : Spanish
Default : No
Forced : No

Text #9
ID : 13
Format : UTF-8
Codec ID : S_TEXT/UTF8
Codec ID/Info : UTF-8 Plain Text
Duration : 1 h 53 min
Bit rate : 45 b/s
Count of elements : 854
Stream size : 38.1 KiB (0%)
Title : Finnish
Language : Finnish
Default : No
Forced : No

Text #10
ID : 14
Format : UTF-8
Codec ID : S_TEXT/UTF8
Codec ID/Info : UTF-8 Plain Text
Duration : 1 h 57 min
Bit rate : 44 b/s
Count of elements : 854
Stream size : 38.1 KiB (0%)
Title : French European
Language : French
Default : No
Forced : No

Text #11
ID : 15
Format : UTF-8
Codec ID : S_TEXT/UTF8
Codec ID/Info : UTF-8 Plain Text
Duration : 1 h 57 min
Bit rate : 56 b/s
Count of elements : 855
Stream size : 49.0 KiB (0%)
Title : Hebrew
Language : Hebrew
Default : No
Forced : No

Text #12
ID : 16
Format : UTF-8
Codec ID : S_TEXT/UTF8
Codec ID/Info : UTF-8 Plain Text
Duration : 1 h 57 min
Bit rate : 121 b/s
Count of elements : 870
Stream size : 105 KiB (0%)
Title : Hindi
Language : Hindi
Default : No
Forced : No

Text #13
ID : 17
Format : UTF-8
Codec ID : S_TEXT/UTF8
Codec ID/Info : UTF-8 Plain Text
Duration : 1 h 57 min
Bit rate : 45 b/s
Count of elements : 855
Stream size : 39.5 KiB (0%)
Title : Hungarian
Language : Hungarian
Default : No
Forced : No

Text #14
ID : 18
Format : UTF-8
Codec ID : S_TEXT/UTF8
Codec ID/Info : UTF-8 Plain Text
Duration : 1 h 57 min
Bit rate : 45 b/s
Count of elements : 855
Stream size : 38.9 KiB (0%)
Title : Italian
Language : Italian
Default : No
Forced : No

Text #15
ID : 19
Format : UTF-8
Codec ID : S_TEXT/UTF8
Codec ID/Info : UTF-8 Plain Text
Duration : 1 h 51 min
Bit rate : 47 b/s
Count of elements : 1221
Stream size : 38.8 KiB (0%)
Title : Japanese
Language : Japanese
Default : No
Forced : No

Text #16
ID : 20
Format : UTF-8
Codec ID : S_TEXT/UTF8
Codec ID/Info : UTF-8 Plain Text
Duration : 1 h 53 min
Bit rate : 43 b/s
Count of elements : 1350
Stream size : 36.1 KiB (0%)
Title : Korean
Language : Korean
Default : No
Forced : No

Text #17
ID : 21
Format : UTF-8
Codec ID : S_TEXT/UTF8
Codec ID/Info : UTF-8 Plain Text
Duration : 1 h 55 min
Bit rate : 46 b/s
Count of elements : 854
Stream size : 39.2 KiB (0%)
Title : Dutch
Language : Dutch
Default : No
Forced : No

Text #18
ID : 22
Format : UTF-8
Codec ID : S_TEXT/UTF8
Codec ID/Info : UTF-8 Plain Text
Duration : 1 h 51 min
Bit rate : 46 b/s
Count of elements : 853
Stream size : 37.8 KiB (0%)
Title : Norwegian
Language : Norwegian
Default : No
Forced : No

Text #19
ID : 23
Format : UTF-8
Codec ID : S_TEXT/UTF8
Codec ID/Info : UTF-8 Plain Text
Duration : 1 h 57 min
Bit rate : 43 b/s
Count of elements : 854
Stream size : 37.8 KiB (0%)
Title : Portuguese European
Language : Portuguese
Default : No
Forced : No

Text #20
ID : 24
Format : UTF-8
Codec ID : S_TEXT/UTF8
Codec ID/Info : UTF-8 Plain Text
Duration : 1 h 57 min
Bit rate : 71 b/s
Count of elements : 855
Stream size : 61.3 KiB (0%)
Title : Russian
Language : Russian
Default : No
Forced : No

Text #21
ID : 25
Format : UTF-8
Codec ID : S_TEXT/UTF8
Codec ID/Info : UTF-8 Plain Text
Duration : 1 h 51 min
Bit rate : 45 b/s
Count of elements : 853
Stream size : 37.3 KiB (0%)
Title : Swedish
Language : Swedish
Default : No
Forced : No

Text #22
ID : 26
Format : UTF-8
Codec ID : S_TEXT/UTF8
Codec ID/Info : UTF-8 Plain Text
Duration : 1 h 51 min
Bit rate : 127 b/s
Count of elements : 1351
Stream size : 105 KiB (0%)
Title : Thai
Language : Thai
Default : No
Forced : No

Text #23
ID : 27
Format : UTF-8
Codec ID : S_TEXT/UTF8
Codec ID/Info : UTF-8 Plain Text
Duration : 1 h 57 min
Bit rate : 40 b/s
Count of elements : 855
Stream size : 35.2 KiB (0%)
Title : Turkish
Language : Turkish
Default : No
Forced : No

Menu
00:00:00.000 : en:Chapter 01
00:04:52.876 : en:Chapter 02
00:14:26.157 : en:Chapter 03
00:23:18.815 : en:Chapter 04
00:33:21.793 : en:Chapter 05
00:40:45.820 : en:Chapter 06
00:48:54.184 : en:Chapter 07
01:00:57.699 : en:Chapter 08
01:10:51.668 : en:Chapter 09
01:19:52.542 : en:Chapter 10
01:30:57.457 : en:Chapter 11
01:33:37.075 : en:Chapter 12
01:41:41.726 : en:Chapter 13
01:45:53.770 : en:Chapter 14
01:50:34.509 : en:Chapter 15
01:54:55.895 : en:Chapter 16


资源速度为零或资源敏感被和谐时,推荐使用qBittorrent等下载软件,有条件的推荐115更好的下载软件!

下载地址:



游客,如果您要查看本帖隐藏内容请回复

游客,如果您要查看本帖隐藏内容请回复

游客,如果您要查看本帖隐藏内容请回复

游客,如果您要查看本帖隐藏内容请回复



以往链接
游客,如果您要查看本帖隐藏内容请回复



.

上一篇:不要开枪 / Hold Your Fire (2021) 4K高清版本下载
下一篇:秘密特工(简繁粤中字)/The Man from U.N.C.L.E.(2015)4K高清版本下载
回复

使用道具 举报

1

主题

1393

帖子

3989

积分

4K家园VIP

Rank: 9Rank: 9Rank: 9

积分
3989
发表于 2022-5-23 19:55:03 来自手机 | 显示全部楼层
多发些资源啊
回复 支持 反对

使用道具 举报

0

主题

26

帖子

450

积分

新手上路

Rank: 1

积分
450
发表于 2022-5-24 06:16:17 | 显示全部楼层
谢谢分享
回复

使用道具 举报

2

主题

1683

帖子

4637

积分

4K家园VIP

Rank: 9Rank: 9Rank: 9

积分
4637
发表于 2022-5-24 07:43:42 | 显示全部楼层
我也是坐沙发的
回复 支持 反对

使用道具 举报

1

主题

1309

帖子

3953

积分

4K家园VIP

Rank: 9Rank: 9Rank: 9

积分
3953
发表于 2022-5-24 10:14:48 | 显示全部楼层
看起来好像不错的样子
回复 支持 反对

使用道具 举报

38

主题

1484

帖子

4270

积分

4K家园VIP

Rank: 9Rank: 9Rank: 9

积分
4270
发表于 2022-5-24 11:53:06 | 显示全部楼层
站位支持
回复 支持 反对

使用道具 举报

4

主题

1428

帖子

4120

积分

中级会员

Rank: 4

积分
4120
发表于 2022-5-24 14:20:04 来自手机 | 显示全部楼层
感谢分享
回复 支持 反对

使用道具 举报

0

主题

79

帖子

630

积分

新手上路

Rank: 1

积分
630
发表于 2022-5-26 18:11:22 | 显示全部楼层

лечение в клиниках китая

Официальный сайт Государственного Военного госпиталя Китая.
Первый государственный военный госпиталь в Китае, получивший лицензию на прием иностранных граждан. Профессиональный коллектив которого проводит лечение пациентов и обучение иностранных студентов для прохождения интернатуры и клинической ординатуры. Китайские врачи работают с больными, страдающими от различных тяжелых и хронических заболеваний. В знак признания выдающегося результатов в области обслуживания международных пациентов с 1947 года китайское правительство наградило госпиталь званием «Международный госпиталь Далянь Красного Креста» в июне 2015. В июле 2016 года, был получен особый статус — «Международный госпиталь традиционной китайской медицины Красного Креста ». В 2021 году, во время пандемии короновируса, госпиталь начал провдить программы удаленного лечения, с помощью видео консультации с профессорами и отправки китайских лекарств пациентам почтой.
Рекомендации и назначение плана удаленного  лечения для иностранных пациентов составляются индивидуально и бесплатно.




RHzs43hgndIpuiSy
回复 支持 反对

使用道具 举报

0

主题

1

帖子

6

积分

新手上路

Rank: 1

积分
6
发表于 2022-5-29 23:42:03 | 显示全部楼层
感谢
回复

使用道具 举报

您需要登录后才可以回帖 登录 | 立即注册

本版积分规则

精彩图文
Archiver|手机版|TAG|Sitemap|新帖|专题|联系我们:邮箱: 4kjia.com@gmail.com   

4k家园   ©2019