[4K电影] 热带惊雷(简繁粤中字)/Tropic Thunder(2008)4K高清版本下载

[复制链接]

1868

主题

2007

帖子

1万

积分

超级版主

Rank: 8Rank: 8

积分
15027
 楼主| 发表于 2022-5-23 20:38:44 | 显示全部楼层 |阅读模式
QQ图片20220523202342_副本.png

◎译  名 热带惊雷/开麦拉惊魂(台)/雷霆丧星(港)
◎片  名 Tropic Thunder
◎年  代 2008
◎产  地 美国,德国
◎类  别 喜剧 / 动作 / 冒险
◎语  言 英语,汉语普通话
◎上映日期 2008-08-13(美国)
◎IMDb评分  7.0/10 from 406046 users
◎IMDb链接  https://www.imdb.com/title/tt0942385/
◎豆瓣评分 6.9/10 from 37655 users
◎豆瓣链接 https://movie.douban.com/subject/1994879/
◎片  长 121 分钟(未分级导演剪辑版)
◎导  演 本·斯蒂勒 Ben Stiller
◎编  剧 本·斯蒂勒 Ben Stiller / 贾斯汀·塞洛克斯 Justin Theroux / 伊坦·柯亨 Etan Cohen
◎主  演 本·斯蒂勒 Ben Stiller
       小罗伯特·唐尼 Robert Downey Jr.
       杰克·布莱克 Jack Black
       马修·麦康纳 Matthew McConaughey
       史蒂夫·库根 Steve Coogan
       尼克·诺特 Nick Nolte
       布兰登·T·杰克逊 Brandon T. Jackson
       杰伊·巴鲁切尔 Jay Baruchel
       汤姆·克鲁斯 Tom Cruise
       比尔·哈德尔 Bill Hader
       雷吉·李 Reggie Lee


◎简  介

  好莱坞计划拍摄一部讲述越战期间,美国一支精英小队前往越南东南部执行绝密任务的战争片,片名《热带惊雷》。该片耗资巨大,场面壮观,号称有史以来最贵的越战影片,并云集了塔克·斯皮德曼(本·斯蒂勒 Ben Stiller 饰)、柯克·拉扎鲁斯(小罗伯特·唐尼 Robert Downey Jr. 饰)、杰夫·波特尼(杰克·布莱克 Jack Black 饰)等过气或当红明星。为力求真实,导演达明·柯克伯恩(史蒂夫·库根 Steve Coogan 饰)甚至将剧组拉至东南亚进行拍摄。影片开拍伊始便状况不断,争议话题频出,最后还卷入当地一场真实的战争之中……
  本片荣获2009年美国演员协会杰出贡献奖、2008年好莱坞电影节年度喜剧奖、2009年青年艺术家奖最佳男配角奖(Brandon Soo Hoo)。

◎获奖情况

  第81届奥斯卡金像奖  (2009)
  最佳男配角(提名) 小罗伯特·唐尼

Video
ID : 1
Format : HEVC
Format/Info : High Efficiency Video Coding
Format profile : Main 10@L5@High
HDR format : SMPTE ST 2086, HDR10 compatible
Codec ID : V_MPEGH/ISO/HEVC
Duration : 1 h 46 min
Bit rate : 24.4 Mb/s
Width : 3 824 pixels
Height : 1 634 pixels
Display aspect ratio : 2.35:1
Frame rate mode : Constant
Frame rate : 23.976 FPS
Color space : YUV
Chroma subsampling : 4:2:0 (Type 2)
Bit depth : 10 bits
Bits/(Pixel*Frame) : 0.163
Stream size : 18.2 GiB (75%)
Default : Yes
Forced : No
Color range : Limited
Color primaries : BT.2020
Transfer characteristics : PQ
Matrix coefficients : BT.2020 non-constant
Mastering display color primaries : Display P3
Mastering display luminance : min: 0.0050 cd/m2, max: 1000 cd/m2
Maximum Content Light Level : 2104 cd/m2
Maximum Frame-Average Light Level : 431 cd/m2

Audio #1
ID : 2
Format : MLP FBA
Format/Info : Meridian Lossless Packing FBA
Commercial name : Dolby TrueHD
Codec ID : A_TRUEHD
Duration : 1 h 46 min
Bit rate mode : Variable
Bit rate : 3 670 kb/s
Maximum bit rate : 5 346 kb/s
Channel(s) : 6 channels
Channel layout : L R C LFE Ls Rs
Sampling rate : 48.0 kHz
Frame rate : 1 200.000 FPS (40 SPF)
Compression mode : Lossless
Stream size : 2.74 GiB (11%)
Title : TrueHD 5.1
Language : English
Default : Yes
Forced : No

Audio #2
ID : 3
Format : DTS XLL
Format/Info : Digital Theater Systems
Commercial name : DTS-HD Master Audio
Codec ID : A_DTS
Duration : 1 h 46 min
Bit rate mode : Variable
Bit rate : 4 073 kb/s
Channel(s) : 6 channels
Channel layout : C L R Ls Rs LFE
Sampling rate : 48.0 kHz
Frame rate : 93.750 FPS (512 SPF)
Bit depth : 24 bits
Compression mode : Lossless
Delay relative to video : 6 ms
Stream size : 3.04 GiB (13%)
Title : DTS-HD MA 5.1
Language : English
Default : No
Forced : No

Audio #3
ID : 4
Format : AC-3
Format/Info : Audio Coding 3
Commercial name : Dolby Digital
Codec ID : A_AC3
Duration : 1 h 46 min
Bit rate mode : Constant
Bit rate : 384 kb/s
Channel(s) : 6 channels
Channel layout : L R C LFE Ls Rs
Sampling rate : 48.0 kHz
Frame rate : 31.250 FPS (1536 SPF)
Compression mode : Lossy
Stream size : 293 MiB (1%)
Language : English
Service kind : Complete Main
Default : No
Forced : No

Text #1
ID : 5
Format : UTF-8
Codec ID : S_TEXT/UTF8
Codec ID/Info : UTF-8 Plain Text
Duration : 1 h 45 min
Bit rate : 92 b/s
Count of elements : 2278
Stream size : 71.9 KiB (0%)
Title : English CC
Language : English
Default : Yes
Forced : No

Text #2
ID : 6
Format : UTF-8
Codec ID : S_TEXT/UTF8
Codec ID/Info : UTF-8 Plain Text
Duration : 1 h 38 min
Bit rate : 107 b/s
Count of elements : 1574
Stream size : 77.8 KiB (0%)
Title : Arabic
Language : Arabic
Default : No
Forced : No

Text #3
ID : 7
Format : UTF-8
Codec ID : S_TEXT/UTF8
Codec ID/Info : UTF-8 Plain Text
Duration : 1 h 38 min
Bit rate : 111 b/s
Count of elements : 1540
Stream size : 80.0 KiB (0%)
Title : Bulgarian
Language : Bulgarian
Default : No
Forced : No

Text #4
ID : 8
Format : UTF-8
Codec ID : S_TEXT/UTF8
Codec ID/Info : UTF-8 Plain Text
Duration : 1 h 44 min
Bit rate : 56 b/s
Count of elements : 1754
Stream size : 43.0 KiB (0%)
Title : 中文(简体)
Language : 中文
Default : No
Forced : No

Text #5
ID : 9
Format : UTF-8
Codec ID : S_TEXT/UTF8
Codec ID/Info : UTF-8 Plain Text
Duration : 1 h 38 min
Bit rate : 59 b/s
Count of elements : 1544
Stream size : 43.0 KiB (0%)
Title : 中文(繁体)
Language : 中文
Default : No
Forced : No

Text #6
ID : 10
Format : UTF-8
Codec ID : S_TEXT/UTF8
Codec ID/Info : UTF-8 Plain Text
Duration : 1 h 38 min
Bit rate : 58 b/s
Count of elements : 1480
Stream size : 41.9 KiB (0%)
Title : Czech
Language : Czech
Default : No
Forced : No

Text #7
ID : 11
Format : UTF-8
Codec ID : S_TEXT/UTF8
Codec ID/Info : UTF-8 Plain Text
Duration : 1 h 38 min
Bit rate : 68 b/s
Count of elements : 1505
Stream size : 49.1 KiB (0%)
Title : Danish
Language : Danish
Default : No
Forced : No

Text #8
ID : 12
Format : UTF-8
Codec ID : S_TEXT/UTF8
Codec ID/Info : UTF-8 Plain Text
Duration : 1 h 38 min
Bit rate : 72 b/s
Count of elements : 1554
Stream size : 52.4 KiB (0%)
Title : Spanish Latin American
Language : Spanish
Default : No
Forced : No

Text #9
ID : 13
Format : UTF-8
Codec ID : S_TEXT/UTF8
Codec ID/Info : UTF-8 Plain Text
Duration : 1 h 38 min
Bit rate : 57 b/s
Count of elements : 1491
Stream size : 41.5 KiB (0%)
Title : Finnish
Language : Finnish
Default : No
Forced : No

Text #10
ID : 14
Format : UTF-8
Codec ID : S_TEXT/UTF8
Codec ID/Info : UTF-8 Plain Text
Duration : 1 h 38 min
Bit rate : 61 b/s
Count of elements : 1435
Stream size : 44.6 KiB (0%)
Title : French
Language : French
Default : No
Forced : No

Text #11
ID : 15
Format : UTF-8
Codec ID : S_TEXT/UTF8
Codec ID/Info : UTF-8 Plain Text
Duration : 1 h 38 min
Bit rate : 113 b/s
Count of elements : 1552
Stream size : 81.6 KiB (0%)
Title : Hebrew
Language : Hebrew
Default : No
Forced : No

Text #12
ID : 16
Format : UTF-8
Codec ID : S_TEXT/UTF8
Codec ID/Info : UTF-8 Plain Text
Duration : 1 h 38 min
Bit rate : 182 b/s
Count of elements : 1576
Stream size : 132 KiB (0%)
Title : Hindi
Language : Hindi
Default : No
Forced : No

Text #13
ID : 17
Format : UTF-8
Codec ID : S_TEXT/UTF8
Codec ID/Info : UTF-8 Plain Text
Duration : 1 h 38 min
Bit rate : 76 b/s
Count of elements : 1566
Stream size : 54.9 KiB (0%)
Title : Indonesian
Language : Indonesian
Default : No
Forced : No

Text #14
ID : 18
Format : UTF-8
Codec ID : S_TEXT/UTF8
Codec ID/Info : UTF-8 Plain Text
Duration : 1 h 38 min
Bit rate : 79 b/s
Count of elements : 1577
Stream size : 57.2 KiB (0%)
Title : Korean
Language : Korean
Default : No
Forced : No

Text #15
ID : 19
Format : UTF-8
Codec ID : S_TEXT/UTF8
Codec ID/Info : UTF-8 Plain Text
Duration : 1 h 38 min
Bit rate : 77 b/s
Count of elements : 1590
Stream size : 55.8 KiB (0%)
Title : Malay
Language : Malay
Default : No
Forced : No

Text #16
ID : 20
Format : UTF-8
Codec ID : S_TEXT/UTF8
Codec ID/Info : UTF-8 Plain Text
Duration : 1 h 38 min
Bit rate : 58 b/s
Count of elements : 1347
Stream size : 42.1 KiB (0%)
Title : Dutch
Language : Dutch
Default : No
Forced : No

Text #17
ID : 21
Format : UTF-8
Codec ID : S_TEXT/UTF8
Codec ID/Info : UTF-8 Plain Text
Duration : 1 h 38 min
Bit rate : 67 b/s
Count of elements : 1531
Stream size : 48.9 KiB (0%)
Title : Norwegian
Language : Norwegian
Default : No
Forced : No

Text #18
ID : 22
Format : UTF-8
Codec ID : S_TEXT/UTF8
Codec ID/Info : UTF-8 Plain Text
Duration : 1 h 40 min
Bit rate : 56 b/s
Count of elements : 1511
Stream size : 41.2 KiB (0%)
Title : Polish
Language : Polish
Default : No
Forced : No

Text #19
ID : 23
Format : UTF-8
Codec ID : S_TEXT/UTF8
Codec ID/Info : UTF-8 Plain Text
Duration : 1 h 40 min
Bit rate : 67 b/s
Count of elements : 1556
Stream size : 49.4 KiB (0%)
Title : Portuguese Brazilian
Language : Portuguese
Default : No
Forced : No

Text #20
ID : 24
Format : UTF-8
Codec ID : S_TEXT/UTF8
Codec ID/Info : UTF-8 Plain Text
Duration : 1 h 38 min
Bit rate : 72 b/s
Count of elements : 1535
Stream size : 52.6 KiB (0%)
Title : Portuguese European
Language : Portuguese
Default : No
Forced : No

Text #21
ID : 25
Format : UTF-8
Codec ID : S_TEXT/UTF8
Codec ID/Info : UTF-8 Plain Text
Duration : 1 h 38 min
Bit rate : 116 b/s
Count of elements : 1576
Stream size : 83.9 KiB (0%)
Title : Russian
Language : Russian
Default : No
Forced : No

Text #22
ID : 26
Format : UTF-8
Codec ID : S_TEXT/UTF8
Codec ID/Info : UTF-8 Plain Text
Duration : 1 h 38 min
Bit rate : 80 b/s
Count of elements : 1576
Stream size : 58.1 KiB (0%)
Title : Slovak
Language : Slovak
Default : No
Forced : No

Text #23
ID : 27
Format : UTF-8
Codec ID : S_TEXT/UTF8
Codec ID/Info : UTF-8 Plain Text
Duration : 1 h 38 min
Bit rate : 51 b/s
Count of elements : 1513
Stream size : 37.3 KiB (0%)
Title : Slovenian
Language : Slovenian
Default : No
Forced : No

Text #24
ID : 28
Format : UTF-8
Codec ID : S_TEXT/UTF8
Codec ID/Info : UTF-8 Plain Text
Duration : 1 h 38 min
Bit rate : 71 b/s
Count of elements : 1544
Stream size : 51.4 KiB (0%)
Title : Swedish
Language : Swedish
Default : No
Forced : No

Text #25
ID : 29
Format : UTF-8
Codec ID : S_TEXT/UTF8
Codec ID/Info : UTF-8 Plain Text
Duration : 1 h 40 min
Bit rate : 157 b/s
Count of elements : 1569
Stream size : 116 KiB (0%)
Title : Thai
Language : Thai
Default : No
Forced : No

Text #26
ID : 30
Format : UTF-8
Codec ID : S_TEXT/UTF8
Codec ID/Info : UTF-8 Plain Text
Duration : 1 h 38 min
Bit rate : 80 b/s
Count of elements : 1576
Stream size : 57.9 KiB (0%)
Title : Turkish
Language : Turkish
Default : No
Forced : No

Text #27
ID : 31
Format : UTF-8
Codec ID : S_TEXT/UTF8
Codec ID/Info : UTF-8 Plain Text
Duration : 1 h 38 min
Bit rate : 60 b/s
Count of elements : 1550
Stream size : 43.3 KiB (0%)
Title : 中文(粤语)
Language : 中文
Default : No
Forced : No

Menu
00:00:00.000 : en:Chapter 1
00:03:57.000 : en:Chapter 2
00:08:57.000 : en:Chapter 3
00:13:04.000 : en:Chapter 4
00:17:48.000 : en:Chapter 5
00:22:44.000 : en:Chapter 6
00:28:55.000 : en:Chapter 7
00:34:58.000 : en:Chapter 8
00:38:50.000 : en:Chapter 9
00:42:03.000 : en:Chapter 10
00:46:57.000 : en:Chapter 11
00:50:43.000 : en:Chapter 12
00:54:40.000 : en:Chapter 13
00:59:54.000 : en:Chapter 14
01:02:22.000 : en:Chapter 15
01:06:16.000 : en:Chapter 16
01:10:24.000 : en:Chapter 17
01:14:38.000 : en:Chapter 18
01:17:55.000 : en:Chapter 19
01:21:50.000 : en:Chapter 20
01:25:11.000 : en:Chapter 21
01:30:56.000 : en:Chapter 22
01:36:53.000 : en:Chapter 23
01:38:37.000 : en:Chapter 24

资源速度为零或资源敏感被和谐时,推荐使用qBittorrent等下载软件,有条件的推荐115更好的下载软件!

下载地址:


游客,如果您要查看本帖隐藏内容请回复

游客,如果您要查看本帖隐藏内容请回复

游客,如果您要查看本帖隐藏内容请回复



以下为以往链接(无中字版本)
游客,如果您要查看本帖隐藏内容请回复





上一篇:秘密特工(简繁粤中字)/The Man from U.N.C.L.E.(2015)4K高清版本下载
下一篇:驯妻记 / McLintock! (1963) 4K高清版本下载
回复

使用道具 举报

37

主题

1512

帖子

4340

积分

4K家园VIP

Rank: 9Rank: 9Rank: 9

积分
4340
发表于 2022-5-23 20:38:48 | 显示全部楼层
支持一下楼主发表的内容
回复 支持 反对

使用道具 举报

0

主题

1

帖子

6

积分

新手上路

Rank: 1

积分
6
发表于 2022-5-25 00:40:49 | 显示全部楼层

free video pron

free video pron
回复 支持 反对

使用道具 举报

0

主题

12

帖子

70

积分

新手上路

Rank: 1

积分
70
发表于 2022-5-25 22:55:14 | 显示全部楼层
谢谢分享谢谢分享谢谢分享
回复 支持 反对

使用道具 举报

48

主题

1528

帖子

4456

积分

4K家园VIP

Rank: 9Rank: 9Rank: 9

积分
4456
发表于 2022-5-26 13:51:14 来自手机 | 显示全部楼层
沙发位出租,
回复 支持 反对

使用道具 举报

0

主题

1

帖子

6

积分

新手上路

Rank: 1

积分
6
发表于 2022-5-26 16:55:16 | 显示全部楼层

chattrube

chattrube
回复

使用道具 举报

0

主题

2

帖子

18

积分

新手上路

Rank: 1

积分
18
发表于 2022-5-26 22:20:54 | 显示全部楼层

применение металлорукава

Первоклассный  лучше всего изготовить в АО "Гибкие Трубопроводы". В их каталоге широкий ряд металлорукавов для любых применений. При том низкий срок производства и все сертификаты.
回复 支持 反对

使用道具 举报

2

主题

1416

帖子

4270

积分

4K家园VIP

Rank: 9Rank: 9Rank: 9

积分
4270
发表于 2022-5-29 15:22:36 | 显示全部楼层
支持一下楼主发表的内容
回复 支持 反对

使用道具 举报

3

主题

1293

帖子

3897

积分

4K家园VIP

Rank: 9Rank: 9Rank: 9

积分
3897
发表于 2022-6-1 01:23:57 | 显示全部楼层
是爷们的娘们的都帮顶!大力支持
回复 支持 反对

使用道具 举报

39

主题

1483

帖子

4245

积分

4K家园VIP

Rank: 9Rank: 9Rank: 9

积分
4245
发表于 2022-6-1 06:04:32 | 显示全部楼层
小白一个 顶一下
回复 支持 反对

使用道具 举报

您需要登录后才可以回帖 登录 | 立即注册

本版积分规则

精彩图文
Archiver|手机版|TAG|Sitemap|新帖|专题|联系我们:邮箱: 4kjia.com@gmail.com   

4k家园   ©2019