[国家地理] [4K国家地理] 伦敦岁月之城 (2020) [2160P/MKV/560MB]

[复制链接]

2825

主题

3188

帖子

2万

积分

超级版主

Rank: 8Rank: 8

积分
26891
 楼主| 发表于 2022-6-26 10:37:41 | 显示全部楼层 |阅读模式
本帖最后由 叽里呱啦 于 2022-5-24 12:13 编辑

伦敦时间之城(560MB) (2020) WEBRip 2160p.mkv_20220524_120633.543.jpg 伦敦时间之城(560MB) (2020) WEBRip 2160p.mkv_20220524_120652.753.jpg 伦敦时间之城(560MB) (2020) WEBRip 2160p.mkv_20220524_120658.121.jpg 伦敦时间之城(560MB) (2020) WEBRip 2160p.mkv_20220524_120715.977.jpg 伦敦时间之城(560MB) (2020) WEBRip 2160p.mkv_20220524_120751.977.jpg 伦敦时间之城(560MB) (2020) WEBRip 2160p.mkv_20220524_120805.465.jpg

影片信息
名称:伦敦时间之城
上映年份: 2020
国家:英国
时间: 00 :03:20
类型: 物种
导演: jansoli

关于电影:

        在伦敦,有象征性的雕塑、教堂、宫殿等古今人的生活痕迹、 寺庙、 摩天大楼和桥梁。

Video
ID                             : 1
Format                         : AVC
Format/Info                    : Advanced Video Codec
Format profile                 : High@L5.2
Format settings                : CABAC / 5 Ref Frames
Format settings, CABAC         : Yes
Format settings, Reference fra : 5 frames
Codec ID                       : V_MPEG4/ISO/AVC
Duration                       : 3 min 20 s
Bit rate                       : 23.3 Mb/s
Width                          : 3 840 pixels
Height                         : 2 160 pixels
Display aspect ratio           : 16:9
Frame rate mode                : Constant
Frame rate                     : 24.000 FPS
Color space                    : YUV
Chroma subsampling             : 4:2:0
Bit depth                      : 8 bits
Scan type                      : Progressive
Bits/(Pixel*Frame)             : 0.117
Stream size                    : 558 MiB (99%)
Writing library                : x264 core 159 r10 1771b55
Encoding settings              : cabac=1 / ref=5 / deblock=1:0:0 / analyse=0x3:0x113 / me=hex / subme=8 / psy=1 / psy_rd=1.00:0.00 / mixed_ref=1 / me_range=16 / chroma_me=1 / trellis=2 / 8x8dct=1 / cqm=0 / deadzone=21,11 / fast_pskip=1 / chroma_qp_offset=-2 / threads=48 / lookahead_threads=8 / sliced_threads=0 / nr=0 / decimate=1 / interlaced=0 / bluray_compat=0 / stitchable=1 / constrained_intra=0 / bframes=3 / b_pyramid=2 / b_adapt=2 / b_bias=0 / direct=3 / weightb=1 / open_gop=0 / weightp=2 / keyint=infinite / keyint_min=24 / scenecut=40 / intra_refresh=0 / rc_lookahead=50 / rc=crf / mbtree=1 / crf=20.0 / qcomp=0.60 / qpmin=5 / qpmax=69 / qpstep=4 / vbv_maxrate=24200 / vbv_bufsize=66000 / crf_max=0.0 / nal_hrd=none / filler=0 / ip_ratio=1.40 / aq=1:1.00
Default                        : Yes
Forced                         : No
Color range                    : Limited
Color primaries                : BT.709
Transfer characteristics       : BT.709
Matrix coefficients            : BT.709

Audio
ID                             : 2
Format                         : AAC LC
Format/Info                    : Advanced Audio Codec Low Complexity
Codec ID                       : A_AAC-2
Duration                       : 3 min 20 s
Bit rate                       : 125 kb/s
Channel(s)                     : 2 channels
Channel layout                 : L R
Sampling rate                  : 48.0 kHz
Frame rate                     : 46.875 FPS (1024 SPF)
Compression mode               : Lossy
Delay relative to video        : -83 ms
Stream size                    : 3.00 MiB (0%)
Default                        : Yes
Forced                         : No

下载地址:

****此区域为收费内容****    需支付 15 金币后可查看立即购买






上一篇:[4K国家地理] 意大利的传统习俗 (2020) [2160P/MKV/809MB]
下一篇:[4K国家地理] 俄罗斯-雅库特 (2021) [2160P/MKV/482MB]
回复

使用道具 举报

40

主题

1503

帖子

4325

积分

4K家园VIP

Rank: 9Rank: 9Rank: 9

积分
4325
发表于 2022-6-26 10:37:46 | 显示全部楼层
支持,赞一个
回复 支持 反对

使用道具 举报

62

主题

1505

帖子

4395

积分

4K家园VIP

Rank: 9Rank: 9Rank: 9

积分
4395
发表于 2022-6-27 14:01:48 | 显示全部楼层
多谢楼主分享
回复 支持 反对

使用道具 举报

2

主题

1374

帖子

3912

积分

4K家园VIP

Rank: 9Rank: 9Rank: 9

积分
3912
发表于 2022-7-4 04:24:01 来自手机 | 显示全部楼层
看着好像不错
回复 支持 反对

使用道具 举报

3

主题

1392

帖子

4008

积分

4K家园VIP

Rank: 9Rank: 9Rank: 9

积分
4008
发表于 2022-7-5 00:33:48 | 显示全部楼层
有4K版啦,下个看下
回复 支持 反对

使用道具 举报

0

主题

721

帖子

2543

积分

注册会员

Rank: 2

积分
2543
发表于 2022-7-8 13:14:19 | 显示全部楼层
感谢楼主分享
回复 支持 反对

使用道具 举报

0

主题

1661

帖子

4613

积分

4K家园VIP

Rank: 9Rank: 9Rank: 9

积分
4613
发表于 2022-7-11 00:15:40 | 显示全部楼层
4K家园不错,希望这种资源越多越好
回复 支持 反对

使用道具 举报

0

主题

2

帖子

13

积分

新手上路

Rank: 1

积分
13
发表于 2022-7-15 11:14:53 | 显示全部楼层
感谢分享
回复

使用道具 举报

0

主题

27

帖子

50

积分

新手上路

Rank: 1

积分
50
发表于 昨天 11:11 | 显示全部楼层
我好像看过的呀
回复 支持 反对

使用道具 举报

您需要登录后才可以回帖 登录 | 立即注册

本版积分规则

精彩图文
Archiver|手机版|TAG|Sitemap|新帖|专题|联系我们:邮箱: 4kjia.com@gmail.com   

4k家园   ©2019